  0
SECTION
  2
HEADER
  9
$ACADVER
  1
AC1032
  9
$ACADMAINTVER
 90
      248
  9
$DWGCODEPAGE
  3
ANSI_932
  9
$LASTSAVEDBY
  1
Hiroki Noike
  9
$REQUIREDVERSIONS
160
                 0
  9
$INSBASE
 10
0.0
 20
0.0
 30
0.0
  9
$EXTMIN
 10
2640.09338475419
 20
46.1880859253879
 30
-0.0015258207003583
  9
$EXTMAX
 10
3278.772957107942
 20
493.2150302673203
 30
0.0000000349246037
  9
$LIMMIN
 10
0.0
 20
0.0
  9
$LIMMAX
 10
12.0
 20
9.0
  9
$ORTHOMODE
 70
     1
  9
$REGENMODE
 70
     1
  9
$FILLMODE
 70
     1
  9
$QTEXTMODE
 70
     0
  9
$MIRRTEXT
 70
     1
  9
$LTSCALE
 40
2.0
  9
$ATTMODE
 70
     1
  9
$TEXTSIZE
 40
1.0
  9
$TRACEWID
 40
0.05
  9
$TEXTSTYLE
  7
STANDARD
  9
$CLAYER
  8
005　中心線
  9
$CELTYPE
  6
CONTINUOUS
  9
$CECOLOR
 62
   256
  9
$CELTSCALE
 40
1.0
  9
$DISPSILH
 70
     0
  9
$DIMSCALE
 40
1.0
  9
$DIMASZ
 40
5.0
  9
$DIMEXO
 40
0.0625
  9
$DIMDLI
 40
0.38
  9
$DIMRND
 40
0.0
  9
$DIMDLE
 40
0.0
  9
$DIMEXE
 40
0.18
  9
$DIMTP
 40
0.0
  9
$DIMTM
 40
0.0
  9
$DIMTXT
 40
10.0
  9
$DIMCEN
 40
0.09
  9
$DIMTSZ
 40
0.0
  9
$DIMTOL
 70
     0
  9
$DIMLIM
 70
     0
  9
$DIMTIH
 70
     0
  9
$DIMTOH
 70
     0
  9
$DIMSE1
 70
     0
  9
$DIMSE2
 70
     0
  9
$DIMTAD
 70
     1
  9
$DIMZIN
 70
     0
  9
$DIMBLK
  1
Open30
  9
$DIMASO
 70
     1
  9
$DIMSHO
 70
     1
  9
$DIMPOST
  1

  9
$DIMAPOST
  1

  9
$DIMALT
 70
     0
  9
$DIMALTD
 70
     2
  9
$DIMALTF
 40
25.4
  9
$DIMLFAC
 40
1.0
  9
$DIMTOFL
 70
     0
  9
$DIMTVP
 40
0.0
  9
$DIMTIX
 70
     0
  9
$DIMSOXD
 70
     0
  9
$DIMSAH
 70
     0
  9
$DIMBLK1
  1

  9
$DIMBLK2
  1

  9
$DIMSTYLE
  2
Standard
  9
$DIMCLRD
 70
     1
  9
$DIMCLRE
 70
     1
  9
$DIMCLRT
 70
     1
  9
$DIMTFAC
 40
1.0
  9
$DIMGAP
 40
1.0
  9
$DIMJUST
 70
     0
  9
$DIMSD1
 70
     0
  9
$DIMSD2
 70
     0
  9
$DIMTOLJ
 70
     1
  9
$DIMTZIN
 70
     0
  9
$DIMALTZ
 70
     0
  9
$DIMALTTZ
 70
     0
  9
$DIMUPT
 70
     0
  9
$DIMDEC
 70
     0
  9
$DIMTDEC
 70
     0
  9
$DIMALTU
 70
     2
  9
$DIMALTTD
 70
     2
  9
$DIMTXSTY
  7
TEXTSTYLE01
  9
$DIMAUNIT
 70
     0
  9
$DIMADEC
 70
     0
  9
$DIMALTRND
 40
0.0
  9
$DIMAZIN
 70
     0
  9
$DIMDSEP
 70
    46
  9
$DIMATFIT
 70
     3
  9
$DIMFRAC
 70
     0
  9
$DIMLDRBLK
  1
Open30
  9
$DIMLUNIT
 70
     2
  9
$DIMLWD
 70
    -2
  9
$DIMLWE
 70
    -2
  9
$DIMTMOVE
 70
     0
  9
$DIMFXL
 40
1.0
  9
$DIMFXLON
 70
     0
  9
$DIMJOGANG
 40
0.7853981633974483
  9
$DIMTFILL
 70
     0
  9
$DIMTFILLCLR
 70
     0
  9
$DIMARCSYM
 70
     0
  9
$DIMLTYPE
  6

  9
$DIMLTEX1
  6

  9
$DIMLTEX2
  6

  9
$DIMTXTDIRECTION
 70
     0
  9
$LUNITS
 70
     2
  9
$LUPREC
 70
     4
  9
$SKETCHINC
 40
0.1
  9
$FILLETRAD
 40
0.0
  9
$AUNITS
 70
     0
  9
$AUPREC
 70
     0
  9
$MENU
  1
.
  9
$ELEVATION
 40
0.0
  9
$PELEVATION
 40
0.0
  9
$THICKNESS
 40
0.0
  9
$LIMCHECK
 70
     0
  9
$CHAMFERA
 40
0.0
  9
$CHAMFERB
 40
0.0
  9
$CHAMFERC
 40
0.0
  9
$CHAMFERD
 40
0.0
  9
$SKPOLY
 70
     0
  9
$TDCREATE
 40
2452359.475497686
  9
$TDUCREATE
 40
2452359.100501146
  9
$TDUPDATE
 40
2460083.663495370
  9
$TDUUPDATE
 40
2460083.288495370
  9
$TDINDWG
 40
0.5037984838
  9
$TDUSRTIMER
 40
0.0847889120
  9
$USRTIMER
 70
     1
  9
$ANGBASE
 50
0.0
  9
$ANGDIR
 70
     0
  9
$PDMODE
 70
     0
  9
$PDSIZE
 40
1.5
  9
$PLINEWID
 40
0.0
  9
$SPLFRAME
 70
     0
  9
$SPLINETYPE
 70
     6
  9
$SPLINESEGS
 70
     8
  9
$HANDSEED
  5
1C9F
  9
$SURFTAB1
 70
     6
  9
$SURFTAB2
 70
     6
  9
$SURFTYPE
 70
     6
  9
$SURFU
 70
     6
  9
$SURFV
 70
     6
  9
$UCSBASE
  2

  9
$UCSNAME
  2

  9
$UCSORG
 10
0.0
 20
0.0
 30
0.0
  9
$UCSXDIR
 10
1.0
 20
0.0
 30
0.0
  9
$UCSYDIR
 10
0.0
 20
1.0
 30
0.0
  9
$UCSORTHOREF
  2

  9
$UCSORTHOVIEW
 70
     0
  9
$UCSORGTOP
 10
0.0
 20
0.0
 30
0.0
  9
$UCSORGBOTTOM
 10
0.0
 20
0.0
 30
0.0
  9
$UCSORGLEFT
 10
0.0
 20
0.0
 30
0.0
  9
$UCSORGRIGHT
 10
0.0
 20
0.0
 30
0.0
  9
$UCSORGFRONT
 10
0.0
 20
0.0
 30
0.0
  9
$UCSORGBACK
 10
0.0
 20
0.0
 30
0.0
  9
$PUCSBASE
  2

  9
$PUCSNAME
  2

  9
$PUCSORG
 10
0.0
 20
0.0
 30
0.0
  9
$PUCSXDIR
 10
1.0
 20
0.0
 30
0.0
  9
$PUCSYDIR
 10
0.0
 20
1.0
 30
0.0
  9
$PUCSORTHOREF
  2

  9
$PUCSORTHOVIEW
 70
     0
  9
$PUCSORGTOP
 10
0.0
 20
0.0
 30
0.0
  9
$PUCSORGBOTTOM
 10
0.0
 20
0.0
 30
0.0
  9
$PUCSORGLEFT
 10
0.0
 20
0.0
 30
0.0
  9
$PUCSORGRIGHT
 10
0.0
 20
0.0
 30
0.0
  9
$PUCSORGFRONT
 10
0.0
 20
0.0
 30
0.0
  9
$PUCSORGBACK
 10
0.0
 20
0.0
 30
0.0
  9
$USERI1
 70
     0
  9
$USERI2
 70
     0
  9
$USERI3
 70
     0
  9
$USERI4
 70
     0
  9
$USERI5
 70
     0
  9
$USERR1
 40
0.0
  9
$USERR2
 40
0.0
  9
$USERR3
 40
0.0
  9
$USERR4
 40
0.0
  9
$USERR5
 40
0.0
  9
$WORLDVIEW
 70
     1
  9
$SHADEDGE
 70
     3
  9
$SHADEDIF
 70
    70
  9
$TILEMODE
 70
     1
  9
$MAXACTVP
 70
    64
  9
$PINSBASE
 10
0.0
 20
0.0
 30
0.0
  9
$PLIMCHECK
 70
     0
  9
$PEXTMIN
 10
1.000000000000000E+20
 20
1.000000000000000E+20
 30
1.000000000000000E+20
  9
$PEXTMAX
 10
-1.000000000000000E+20
 20
-1.000000000000000E+20
 30
-1.000000000000000E+20
  9
$PLIMMIN
 10
0.0
 20
0.0
  9
$PLIMMAX
 10
0.0
 20
0.0
  9
$UNITMODE
 70
     0
  9
$VISRETAIN
 70
     1
  9
$PLINEGEN
 70
     0
  9
$PSLTSCALE
 70
     1
  9
$TREEDEPTH
 70
  3020
  9
$CMLSTYLE
  2
Standard
  9
$CMLJUST
 70
     0
  9
$CMLSCALE
 40
1.0
  9
$PROXYGRAPHICS
 70
     1
  9
$MEASUREMENT
 70
     0
  9
$CELWEIGHT
370
    -1
  9
$ENDCAPS
280
     0
  9
$JOINSTYLE
280
     0
  9
$LWDISPLAY
290
     0
  9
$INSUNITS
 70
     0
  9
$HYPERLINKBASE
  1

  9
$STYLESHEET
  1
monochrome.ctb
  9
$XEDIT
290
     1
  9
$CEPSNTYPE
380
     0
  9
$PSTYLEMODE
290
     1
  9
$FINGERPRINTGUID
  2
{8F150841-D218-4524-B46F-11BF936DFCC9}
  9
$VERSIONGUID
  2
{04BC07A5-5D97-2143-B90F-411A88B9AC0C}
  9
$EXTNAMES
290
     1
  9
$PSVPSCALE
 40
0.0
  9
$OLESTARTUP
290
     0
  9
$SORTENTS
280
   127
  9
$INDEXCTL
280
     0
  9
$HIDETEXT
280
     0
  9
$XCLIPFRAME
280
     2
  9
$HALOGAP
280
     0
  9
$OBSCOLOR
 70
   257
  9
$OBSLTYPE
280
     0
  9
$INTERSECTIONDISPLAY
280
     0
  9
$INTERSECTIONCOLOR
 70
   257
  9
$DIMASSOC
280
     1
  9
$PROJECTNAME
  1

  9
$CAMERADISPLAY
290
     0
  9
$LENSLENGTH
 40
50.0
  9
$CAMERAHEIGHT
 40
0.0
  9
$STEPSPERSEC
 40
2.0
  9
$STEPSIZE
 40
6.0
  9
$3DDWFPREC
 40
2.0
  9
$PSOLWIDTH
 40
0.25
  9
$PSOLHEIGHT
 40
4.0
  9
$LOFTANG1
 40
1.570796326794896
  9
$LOFTANG2
 40
1.570796326794896
  9
$LOFTMAG1
 40
0.0
  9
$LOFTMAG2
 40
0.0
  9
$LOFTPARAM
 70
     7
  9
$LOFTNORMALS
280
     1
  9
$LATITUDE
 40
37.795
  9
$LONGITUDE
 40
-122.394
  9
$NORTHDIRECTION
 40
0.0
  9
$TIMEZONE
 70
 -8000
  9
$LIGHTGLYPHDISPLAY
280
     1
  9
$TILEMODELIGHTSYNCH
280
     1
  9
$CMATERIAL
347
DA4
  9
$SOLIDHIST
280
     0
  9
$SHOWHIST
280
     1
  9
$DWFFRAME
280
     2
  9
$DGNFRAME
280
     0
  9
$REALWORLDSCALE
290
     1
  9
$INTERFERECOLOR
 62
     1
  9
$INTERFEREOBJVS
345
DC6
  9
$INTERFEREVPVS
346
DC3
  9
$CSHADOW
280
     0
  9
$SHADOWPLANELOCATION
 40
0.0
  0
ENDSEC
  0
SECTION
  2
CLASSES
  0
CLASS
  1
ACDBDICTIONARYWDFLT
  2
AcDbDictionaryWithDefault
  3
ObjectDBX Classes
 90
        0
 91
        1
280
     0
281
     0
  0
CLASS
  1
MATERIAL
  2
AcDbMaterial
  3
ObjectDBX Classes
 90
     1153
 91
        3
280
     0
281
     0
  0
CLASS
  1
VISUALSTYLE
  2
AcDbVisualStyle
  3
ObjectDBX Classes
 90
     4095
 91
       24
280
     0
281
     0
  0
CLASS
  1
TABLESTYLE
  2
AcDbTableStyle
  3
ObjectDBX Classes
 90
     4095
 91
        1
280
     0
281
     0
  0
CLASS
  1
SCALE
  2
AcDbScale
  3
ObjectDBX Classes
 90
     1153
 91
       33
280
     0
281
     0
  0
CLASS
  1
MLEADERSTYLE
  2
AcDbMLeaderStyle
  3
ACDB_MLEADERSTYLE_CLASS
 90
     4095
 91
        1
280
     0
281
     0
  0
CLASS
  1
CELLSTYLEMAP
  2
AcDbCellStyleMap
  3
ObjectDBX Classes
 90
     1152
 91
        1
280
     0
281
     0
  0
CLASS
  1
DICTIONARYVAR
  2
AcDbDictionaryVar
  3
ObjectDBX Classes
 90
        0
 91
       37
280
     0
281
     0
  0
CLASS
  1
SORTENTSTABLE
  2
AcDbSortentsTable
  3
ObjectDBX Classes
 90
        0
 91
        0
280
     0
281
     0
  0
CLASS
  1
ACDBSECTIONVIEWSTYLE
  2
AcDbSectionViewStyle
  3
ObjectDBX Classes
 90
     1025
 91
        1
280
     0
281
     0
  0
CLASS
  1
ACDBDETAILVIEWSTYLE
  2
AcDbDetailViewStyle
  3
ObjectDBX Classes
 90
     1025
 91
        1
280
     0
281
     0
  0
CLASS
  1
ACDBASSOCNETWORK
  2
AcDbAssocNetwork
  3
ObjectDBX Classes
 90
     1025
 91
        4
280
     0
281
     0
  0
CLASS
  1
ACDBASSOCACTION
  2
AcDbAssocAction
  3
ObjectDBX Classes
 90
     1025
 91
        3
280
     0
281
     0
  0
CLASS
  1
AcDbCenterMarkActionBody
  2
AcDbCenterMarkActionBody
  3
AcDbSmartCenter
 90
     1153
 91
        2
280
     0
281
     0
  0
CLASS
  1
ACDBASSOCEDGEACTIONPARAM
  2
AcDbAssocEdgeActionParam
  3
ObjectDBX Classes
 90
     1025
 91
        4
280
     0
281
     0
  0
CLASS
  1
ACDBASSOCGEOMDEPENDENCY
  2
AcDbAssocGeomDependency
  3
ObjectDBX Classes
 90
     1025
 91
        4
280
     0
281
     0
  0
CLASS
  1
ACDBASSOCDEPENDENCY
  2
AcDbAssocDependency
  3
ObjectDBX Classes
 90
     1025
 91
        3
280
     0
281
     0
  0
CLASS
  1
AcDbCenterLineActionBody
  2
AcDbCenterLineActionBody
  3
AcDbSmartCenter
 90
     1153
 91
        1
280
     0
281
     0
  0
CLASS
  1
RAPIDRTRENDERSETTINGS
  2
AcDbRapidRTRenderSettings
  3
ObjectDBX Classes
 90
     1024
 91
        6
280
     0
281
     0
  0
ENDSEC
  0
SECTION
  2
TABLES
  0
TABLE
  2
VPORT
  5
8
330
0
100
AcDbSymbolTable
 70
     1
  0
VPORT
  5
B2E
330
8
100
AcDbSymbolTableRecord
100
AcDbViewportTableRecord
  2
*Active
 70
     0
 10
0.0
 20
0.0
 11
1.0
 21
1.0
 12
3371.618396033556
 22
-142.194286712581
 13
0.0
 23
0.0
 14
1.0
 24
1.0
 15
0.0
 25
0.0
 16
0.0
 26
0.0
 36
1.0
 17
0.0
 27
0.0
 37
0.0
 40
2307.235929802185
 41
2.389788293897882
 42
50.0
 43
0.0
 44
0.0
 50
0.0
 51
0.0
 71
    16
 72
   100
 73
     1
 74
     1
 75
     0
 76
     0
 77
     0
 78
     0
281
     0
 65
     1
110
0.0
120
0.0
130
0.0
111
1.0
121
0.0
131
0.0
112
0.0
122
1.0
132
0.0
 79
     0
146
0.0
348
DC2
 60
     3
 61
     5
292
     1
282
     1
141
0.0
142
0.0
 63
   250
421
  3355443
1001
ACAD_NAV_VCDISPLAY
1070
     3
  0
ENDTAB
  0
TABLE
  2
LTYPE
  5
5
330
0
100
AcDbSymbolTable
 70
    13
  0
LTYPE
  5
13
330
5
100
AcDbSymbolTableRecord
100
AcDbLinetypeTableRecord
  2
ByBlock
 70
     0
  3

 72
    65
 73
     0
 40
0.0
  0
LTYPE
  5
14
330
5
100
AcDbSymbolTableRecord
100
AcDbLinetypeTableRecord
  2
ByLayer
 70
     0
  3

 72
    65
 73
     0
 40
0.0
  0
LTYPE
  5
15
330
5
100
AcDbSymbolTableRecord
100
AcDbLinetypeTableRecord
  2
CONTINUOUS
 70
     0
  3
実線
 72
    65
 73
     0
 40
0.0
  0
LTYPE
  5
22
330
5
100
AcDbSymbolTableRecord
100
AcDbLinetypeTableRecord
  2
DASHED
 70
     0
  3
破線A
 72
    65
 73
     2
 40
7.5
 49
5.0
 74
     0
 49
-2.5
 74
     0
  0
LTYPE
  5
23
330
5
100
AcDbSymbolTableRecord
100
AcDbLinetypeTableRecord
  2
DASHEDX2
 70
     0
  3
破線B
 72
    65
 73
     2
 40
15.0
 49
10.0
 74
     0
 49
-5.0
 74
     0
  0
LTYPE
  5
24
330
5
100
AcDbSymbolTableRecord
100
AcDbLinetypeTableRecord
  2
DASHDOT
 70
     0
  3
１点鎖線A
 72
    65
 73
     4
 40
10.0
 49
5.0
 74
     0
 49
-2.5
 74
     0
 49
0.0
 74
     0
 49
-2.5
 74
     0
  0
LTYPE
  5
25
330
5
100
AcDbSymbolTableRecord
100
AcDbLinetypeTableRecord
  2
DASHDOTX2
 70
     0
  3
１点鎖線B
 72
    65
 73
     4
 40
20.0
 49
10.0
 74
     0
 49
-5.0
 74
     0
 49
0.0
 74
     0
 49
-5.0
 74
     0
  0
LTYPE
  5
26
330
5
100
AcDbSymbolTableRecord
100
AcDbLinetypeTableRecord
  2
DIVIDE2
 70
     0
  3
２点鎖線A
 72
    65
 73
     6
 40
6.25
 49
2.5
 74
     0
 49
-1.25
 74
     0
 49
0.0
 74
     0
 49
-1.25
 74
     0
 49
0.0
 74
     0
 49
-1.25
 74
     0
  0
LTYPE
  5
27
330
5
100
AcDbSymbolTableRecord
100
AcDbLinetypeTableRecord
  2
DIVIDE
 70
     0
  3
２点鎖線B
 72
    65
 73
     6
 40
12.5
 49
5.0
 74
     0
 49
-2.5
 74
     0
 49
0.0
 74
     0
 49
-2.5
 74
     0
 49
0.0
 74
     0
 49
-2.5
 74
     0
  0
LTYPE
  5
28
330
5
100
AcDbSymbolTableRecord
100
AcDbLinetypeTableRecord
  2
DOT
 70
     0
  3
点線A
 72
    65
 73
     2
 40
2.5
 49
0.0
 74
     0
 49
-2.5
 74
     0
  0
LTYPE
  5
29
330
5
100
AcDbSymbolTableRecord
100
AcDbLinetypeTableRecord
  2
DOTX2
 70
     0
  3
点線B
 72
    65
 73
     2
 40
5.0
 49
0.0
 74
     0
 49
-5.0
 74
     0
  0
LTYPE
  5
E2F
330
5
100
AcDbSymbolTableRecord
100
AcDbLinetypeTableRecord
  2
CENTER
 70
     0
  3
____ _ ____ _ ____ _ ____ _ ____ _ ____ _ ____ 
 72
    65
 73
     4
 40
2.0
 49
1.25
 74
     0
 49
-0.25
 74
     0
 49
0.25
 74
     0
 49
-0.25
 74
     0
  0
LTYPE
  5
1958
330
5
100
AcDbSymbolTableRecord
100
AcDbLinetypeTableRecord
  2
CENTER2
 70
     0
  3
Center (.5x) ___ _ ___ _ ___ _ ___ _ ___ _ ___
 72
    65
 73
     4
 40
1.125
 49
0.75
 74
     0
 49
-0.125
 74
     0
 49
0.125
 74
     0
 49
-0.125
 74
     0
  0
ENDTAB
  0
TABLE
  2
LAYER
  5
2
102
{ACAD_XDICTIONARY
360
BB7
102
}
330
0
100
AcDbSymbolTable
 70
    12
  0
LAYER
  5
10
102
{ACAD_XDICTIONARY
360
A5E
102
}
330
2
100
AcDbSymbolTableRecord
100
AcDbLayerTableRecord
  2
0
 70
     0
 62
     7
  6
CONTINUOUS
370
    -3
390
F
347
DB4
348
0
  0
LAYER
  5
2A
102
{ACAD_XDICTIONARY
360
A60
102
}
330
2
100
AcDbSymbolTableRecord
100
AcDbLayerTableRecord
  2
ﾚｲﾔ1
 70
     0
 62
     7
  6
CONTINUOUS
370
    -3
390
F
347
DB4
348
0
  0
LAYER
  5
30
102
{ACAD_XDICTIONARY
360
A62
102
}
330
2
100
AcDbSymbolTableRecord
100
AcDbLayerTableRecord
  2
補助線
 70
     0
 62
     8
  6
DOT
370
    -3
390
F
347
DB4
348
0
  0
LAYER
  5
31
102
{ACAD_XDICTIONARY
360
A64
102
}
330
2
100
AcDbSymbolTableRecord
100
AcDbLayerTableRecord
  2
文字
 70
     0
 62
     5
  6
CONTINUOUS
370
    -3
390
F
347
DB4
348
0
  0
LAYER
  5
32
102
{ACAD_XDICTIONARY
360
A66
102
}
330
2
100
AcDbSymbolTableRecord
100
AcDbLayerTableRecord
  2
ﾚｲﾔ9
 70
     0
 62
   252
  6
DASHDOT
370
    -3
390
F
347
DB4
348
0
  0
LAYER
  5
38
102
{ACAD_XDICTIONARY
360
A68
102
}
330
2
100
AcDbSymbolTableRecord
100
AcDbLayerTableRecord
  2
寸法
 70
     0
 62
     1
  6
CONTINUOUS
370
    -3
390
F
347
DB4
348
0
  0
LAYER
  5
669
330
2
100
AcDbSymbolTableRecord
100
AcDbLayerTableRecord
  2
Defpoints
 70
     0
 62
     7
  6
CONTINUOUS
290
     0
370
    -3
390
F
347
DB4
348
0
  0
LAYER
  5
B49
102
{ACAD_XDICTIONARY
360
B4A
102
}
330
2
100
AcDbSymbolTableRecord
100
AcDbLayerTableRecord
  2
図面枠
 70
     0
 62
     5
  6
CONTINUOUS
370
    -3
390
F
347
DB4
348
0
  0
LAYER
  5
B4C
102
{ACAD_XDICTIONARY
360
B4D
102
}
330
2
100
AcDbSymbolTableRecord
100
AcDbLayerTableRecord
  2
下図
 70
     0
 62
     8
  6
DASHDOT
290
     0
370
    -3
390
F
347
DB4
348
0
  0
LAYER
  5
E30
102
{ACAD_XDICTIONARY
360
E31
102
}
330
2
100
AcDbSymbolTableRecord
100
AcDbLayerTableRecord
  2
図面
 70
     0
 62
     7
  6
CONTINUOUS
370
    40
390
F
347
DB4
348
0
  0
LAYER
  5
E32
330
2
100
AcDbSymbolTableRecord
100
AcDbLayerTableRecord
  2
中心線
 70
     0
 62
     1
  6
CENTER
370
    13
390
F
347
DB4
348
0
1001
AcAecLayerStandard
1000

1000

  0
LAYER
  5
E33
102
{ACAD_XDICTIONARY
360
E34
102
}
330
2
100
AcDbSymbolTableRecord
100
AcDbLayerTableRecord
  2
005　中心線
 70
     0
 62
     1
  6
CENTER
370
    13
390
F
347
DB4
348
0
1001
AcAecLayerStandard
1000

1000

1001
AcCmTransparency
1071
 33554687
  0
ENDTAB
  0
TABLE
  2
STYLE
  5
3
330
0
100
AcDbSymbolTable
 70
    16
  0
STYLE
  5
11
330
3
100
AcDbSymbolTableRecord
100
AcDbTextStyleTableRecord
  2
STANDARD
 70
     0
 40
1.0
 41
1.0
 50
0.0
 71
     0
 42
1.0
  3
TXT
  4
BIGFONT
  0
STYLE
  5
3B
330
3
100
AcDbSymbolTableRecord
100
AcDbTextStyleTableRecord
  2
TATE
 70
     4
 40
1.0
 41
1.0
 50
0.0
 71
     0
 42
1.0
  3
TXT
  4
BIGFONT
  0
STYLE
  5
3C
330
3
100
AcDbSymbolTableRecord
100
AcDbTextStyleTableRecord
  2
TEXTSTYLE01
 70
     0
 40
0.0
 41
1.0
 50
0.0
 71
     0
 42
0.0
  3
TXT
  4
BIGFONT
  0
STYLE
  5
3D
330
3
100
AcDbSymbolTableRecord
100
AcDbTextStyleTableRecord
  2
TEXTSTYLE02
 70
     0
 40
0.0
 41
1.0
 50
0.0
 71
     0
 42
0.0
  3
TXT
  4
BIGFONT
  0
STYLE
  5
3E
330
3
100
AcDbSymbolTableRecord
100
AcDbTextStyleTableRecord
  2
TEXTSTYLE03
 70
     0
 40
0.0
 41
1.0
 50
0.0
 71
     0
 42
0.0
  3
TXT
  4
BIGFONT
  0
STYLE
  5
3F
330
3
100
AcDbSymbolTableRecord
100
AcDbTextStyleTableRecord
  2
TEXTSTYLE04
 70
     0
 40
0.0
 41
1.0
 50
0.0
 71
     0
 42
0.0
  3
TXT
  4
BIGFONT
  0
STYLE
  5
40
330
3
100
AcDbSymbolTableRecord
100
AcDbTextStyleTableRecord
  2
TEXTSTYLE05
 70
     0
 40
0.0
 41
1.0
 50
0.0
 71
     0
 42
0.0
  3
TXT
  4
BIGFONT
  0
STYLE
  5
41
330
3
100
AcDbSymbolTableRecord
100
AcDbTextStyleTableRecord
  2
TEXTSTYLE06
 70
     0
 40
0.0
 41
1.0
 50
0.0
 71
     0
 42
0.0
  3

  4

  0
STYLE
  5
42
330
3
100
AcDbSymbolTableRecord
100
AcDbTextStyleTableRecord
  2
TEXTSTYLE07
 70
     0
 40
0.0
 41
1.0
 50
0.0
 71
     0
 42
0.0
  3

  4

  0
STYLE
  5
43
330
3
100
AcDbSymbolTableRecord
100
AcDbTextStyleTableRecord
  2
TEXTSTYLE08
 70
     0
 40
0.0
 41
1.0
 50
0.0
 71
     0
 42
0.0
  3

  4

  0
STYLE
  5
44
330
3
100
AcDbSymbolTableRecord
100
AcDbTextStyleTableRecord
  2
TEXTSTYLE09
 70
     0
 40
0.0
 41
1.0
 50
0.0
 71
     0
 42
0.0
  3

  4

  0
STYLE
  5
45
330
3
100
AcDbSymbolTableRecord
100
AcDbTextStyleTableRecord
  2
TEXTSTYLE10
 70
     0
 40
0.0
 41
1.0
 50
0.0
 71
     0
 42
0.0
  3

  4

  0
STYLE
  5
70E
330
3
100
AcDbSymbolTableRecord
100
AcDbTextStyleTableRecord
  2

 70
     1
 40
0.0
 41
1.0
 50
0.0
 71
     0
 42
0.2
  3
ltypeshp.shx
  4

  0
STYLE
  5
B53
330
3
100
AcDbSymbolTableRecord
100
AcDbTextStyleTableRecord
  2
DIMFONT1
 70
     0
 40
0.0
 41
1.193548387096774
 50
0.0
 71
     0
 42
1.0
  3
msgothic.ttc
  4

1001
ACAD
1000
MS PGothic
1071
    32818
  0
STYLE
  5
E35
330
3
100
AcDbSymbolTableRecord
100
AcDbTextStyleTableRecord
  2
WMF-ＭＳ Ｐ明朝0
 70
     0
 40
0.0
 41
1.0
 50
0.0
 71
     0
 42
0.2
  3
MS PMincho.ttf
  4

1001
ACAD
1000
MS PMincho
1071
    32768
  0
ENDTAB
  0
TABLE
  2
VIEW
  5
6
330
0
100
AcDbSymbolTable
 70
     0
  0
ENDTAB
  0
TABLE
  2
UCS
  5
7
330
0
100
AcDbSymbolTable
 70
     0
  0
ENDTAB
  0
TABLE
  2
APPID
  5
9
330
0
100
AcDbSymbolTable
 70
     8
  0
APPID
  5
12
330
9
100
AcDbSymbolTableRecord
100
AcDbRegAppTableRecord
  2
ACAD
 70
     0
  0
APPID
  5
A59
330
9
100
AcDbSymbolTableRecord
100
AcDbRegAppTableRecord
  2
ACAD_MLEADERVER
 70
     0
  0
APPID
  5
B55
330
9
100
AcDbSymbolTableRecord
100
AcDbRegAppTableRecord
  2
ACAD_NAV_VCDISPLAY
 70
     0
  0
APPID
  5
D46
330
9
100
AcDbSymbolTableRecord
100
AcDbRegAppTableRecord
  2
PLOTTRANSPARENCY
 70
     0
  0
APPID
  5
E36
330
9
100
AcDbSymbolTableRecord
100
AcDbRegAppTableRecord
  2
ACAD_PSEXT
 70
     0
  0
APPID
  5
E37
330
9
100
AcDbSymbolTableRecord
100
AcDbRegAppTableRecord
  2
AcAecLayerStandard
 70
     0
  0
APPID
  5
E38
330
9
100
AcDbSymbolTableRecord
100
AcDbRegAppTableRecord
  2
AcCmTransparency
 70
     0
  0
APPID
  5
1977
330
9
100
AcDbSymbolTableRecord
100
AcDbRegAppTableRecord
  2
ACAD_EXEMPT_FROM_CAD_STANDARDS
 70
     0
  0
ENDTAB
  0
TABLE
  2
DIMSTYLE
  5
A
330
0
100
AcDbSymbolTable
 70
     6
100
AcDbDimStyleTable
 71
     1
340
63B
  0
DIMSTYLE
105
63B
102
{ACAD_REACTORS
330
676
330
68C
330
6A7
330
6C1
330
6CF
330
6DC
330
6F2
330
6FF
330
1B35
102
}
330
A
100
AcDbSymbolTableRecord
100
AcDbDimStyleTableRecord
  2
Standard
 70
     0
 41
5.0
 73
     0
 74
     0
 77
     1
140
10.0
147
1.0
176
     1
177
     1
178
     1
271
     0
272
     0
340
3C
341
660
342
660
  0
DIMSTYLE
105
667
330
A
100
AcDbSymbolTableRecord
100
AcDbDimStyleTableRecord
  2
標準
 70
     0
 41
3.0
 42
0.5
 43
0.5
 44
0.5
 73
     0
 74
     0
 77
     1
140
5.0
147
1.0
176
     1
177
     1
178
     1
271
     0
272
     0
340
3C
341
660
342
660
  0
DIMSTYLE
105
B52
330
A
100
AcDbSymbolTableRecord
100
AcDbDimStyleTableRecord
  2
DIM001
 70
     0
 40
10.0
 41
1.0
 42
0.0
 44
1.0
 45
1.0
 73
     0
 74
     0
 77
     3
140
1.216216216216215
147
0.2
172
     1
176
     7
177
     7
178
     7
271
     0
273
     6
340
B53
  0
DIMSTYLE
105
B54
330
A
100
AcDbSymbolTableRecord
100
AcDbDimStyleTableRecord
  2
DIM002
 70
     0
 40
10.0
 41
1.0
 42
0.0
 44
0.0
 45
1.0
 73
     0
 74
     0
 77
     3
140
1.216216216216215
147
0.2
172
     1
176
     7
177
     7
178
     7
271
     0
273
     6
340
B53
  0
ENDTAB
  0
TABLE
  2
BLOCK_RECORD
  5
1
330
0
100
AcDbSymbolTable
 70
    36
  0
BLOCK_RECORD
  5
1E
102
{ACAD_XDICTIONARY
360
D47
102
}
330
1
100
AcDbSymbolTableRecord
100
AcDbBlockTableRecord
  2
*Model_Space
340
21
 70
     0
280
     1
281
     0
  0
BLOCK_RECORD
  5
1A
330
1
100
AcDbSymbolTableRecord
100
AcDbBlockTableRecord
  2
*Paper_Space
340
1D
 70
     0
280
     1
281
     0
  0
BLOCK_RECORD
  5
31F
330
1
100
AcDbSymbolTableRecord
100
AcDbBlockTableRecord
  2
*U0
340
0
102
{BLKREFS
331
441
102
}
 70
     0
280
     1
281
     0
  0
BLOCK_RECORD
  5
33D
330
1
100
AcDbSymbolTableRecord
100
AcDbBlockTableRecord
  2
*U1
340
0
102
{BLKREFS
331
442
102
}
 70
     0
280
     1
281
     0
  0
BLOCK_RECORD
  5
345
330
1
100
AcDbSymbolTableRecord
100
AcDbBlockTableRecord
  2
*U2
340
0
102
{BLKREFS
331
445
102
}
 70
     0
280
     1
281
     0
  0
BLOCK_RECORD
  5
34D
330
1
100
AcDbSymbolTableRecord
100
AcDbBlockTableRecord
  2
*U3
340
0
102
{BLKREFS
331
451
102
}
 70
     0
280
     1
281
     0
  0
BLOCK_RECORD
  5
355
330
1
100
AcDbSymbolTableRecord
100
AcDbBlockTableRecord
  2
*U4
340
0
 70
     0
280
     1
281
     0
  0
BLOCK_RECORD
  5
660
330
1
100
AcDbSymbolTableRecord
100
AcDbBlockTableRecord
  2
_Open30
340
0
 70
     0
280
     1
281
     0
  0
BLOCK_RECORD
  5
677
330
1
100
AcDbSymbolTableRecord
100
AcDbBlockTableRecord
  2
*D6
340
0
 70
     0
280
     1
281
     0
  0
BLOCK_RECORD
  5
68D
330
1
100
AcDbSymbolTableRecord
100
AcDbBlockTableRecord
  2
*D7
340
0
 70
     0
280
     1
281
     0
  0
BLOCK_RECORD
  5
6A8
330
1
100
AcDbSymbolTableRecord
100
AcDbBlockTableRecord
  2
*D8
340
0
 70
     0
280
     1
281
     0
  0
BLOCK_RECORD
  5
6C2
330
1
100
AcDbSymbolTableRecord
100
AcDbBlockTableRecord
  2
*D9
340
0
 70
     0
280
     1
281
     0
  0
BLOCK_RECORD
  5
6D0
330
1
100
AcDbSymbolTableRecord
100
AcDbBlockTableRecord
  2
*D10
340
0
 70
     0
280
     1
281
     0
  0
BLOCK_RECORD
  5
6DD
330
1
100
AcDbSymbolTableRecord
100
AcDbBlockTableRecord
  2
*D11
340
0
 70
     0
280
     1
281
     0
  0
BLOCK_RECORD
  5
6F3
330
1
100
AcDbSymbolTableRecord
100
AcDbBlockTableRecord
  2
*D12
340
0
 70
     0
280
     1
281
     0
  0
BLOCK_RECORD
  5
700
330
1
100
AcDbSymbolTableRecord
100
AcDbBlockTableRecord
  2
*D13
340
0
 70
     0
280
     1
281
     0
  0
BLOCK_RECORD
  5
A8C
330
1
100
AcDbSymbolTableRecord
100
AcDbBlockTableRecord
  2
_Open
340
0
 70
     0
280
     1
281
     0
  0
BLOCK_RECORD
  5
DE2
330
1
100
AcDbSymbolTableRecord
100
AcDbBlockTableRecord
  2
*D15
340
0
 70
     0
280
     1
281
     0
  0
BLOCK_RECORD
  5
DEC
330
1
100
AcDbSymbolTableRecord
100
AcDbBlockTableRecord
  2
*D16
340
0
 70
     0
280
     1
281
     0
  0
BLOCK_RECORD
  5
DF7
330
1
100
AcDbSymbolTableRecord
100
AcDbBlockTableRecord
  2
*D17
340
0
 70
     0
280
     1
281
     0
  0
BLOCK_RECORD
  5
E03
330
1
100
AcDbSymbolTableRecord
100
AcDbBlockTableRecord
  2
*D18
340
0
 70
     0
280
     1
281
     0
  0
BLOCK_RECORD
  5
E0D
330
1
100
AcDbSymbolTableRecord
100
AcDbBlockTableRecord
  2
*D19
340
0
 70
     0
280
     1
281
     0
  0
BLOCK_RECORD
  5
E19
330
1
100
AcDbSymbolTableRecord
100
AcDbBlockTableRecord
  2
*D20
340
0
 70
     0
280
     1
281
     0
  0
BLOCK_RECORD
  5
E23
330
1
100
AcDbSymbolTableRecord
100
AcDbBlockTableRecord
  2
*D21
340
0
 70
     0
280
     1
281
     0
  0
BLOCK_RECORD
  5
1132
330
1
100
AcDbSymbolTableRecord
100
AcDbBlockTableRecord
  2
*D23
340
0
 70
     0
280
     1
281
     0
  0
BLOCK_RECORD
  5
113E
330
1
100
AcDbSymbolTableRecord
100
AcDbBlockTableRecord
  2
*D24
340
0
 70
     0
280
     1
281
     0
  0
BLOCK_RECORD
  5
114A
330
1
100
AcDbSymbolTableRecord
100
AcDbBlockTableRecord
  2
*D25
340
0
 70
     0
280
     1
281
     0
  0
BLOCK_RECORD
  5
1156
330
1
100
AcDbSymbolTableRecord
100
AcDbBlockTableRecord
  2
*D26
340
0
 70
     0
280
     1
281
     0
  0
BLOCK_RECORD
  5
1162
330
1
100
AcDbSymbolTableRecord
100
AcDbBlockTableRecord
  2
*D27
340
0
 70
     0
280
     1
281
     0
  0
BLOCK_RECORD
  5
116E
330
1
100
AcDbSymbolTableRecord
100
AcDbBlockTableRecord
  2
*D28
340
0
 70
     0
280
     1
281
     0
  0
BLOCK_RECORD
  5
117A
330
1
100
AcDbSymbolTableRecord
100
AcDbBlockTableRecord
  2
*D29
340
0
 70
     0
280
     1
281
     0
  0
BLOCK_RECORD
  5
1954
330
1
100
AcDbSymbolTableRecord
100
AcDbBlockTableRecord
  2
*U30
340
0
102
{BLKREFS
331
1957
102
}
 70
     0
280
     1
281
     0
  0
BLOCK_RECORD
  5
1966
330
1
100
AcDbSymbolTableRecord
100
AcDbBlockTableRecord
  2
*U31
340
0
102
{BLKREFS
331
1969
102
}
 70
     0
280
     1
281
     0
  0
BLOCK_RECORD
  5
1B36
330
1
100
AcDbSymbolTableRecord
100
AcDbBlockTableRecord
  2
*D34
340
0
 70
     0
280
     1
281
     0
  0
ENDTAB
  0
ENDSEC
  0
SECTION
  2
BLOCKS
  0
BLOCK
  5
1F
330
1E
100
AcDbEntity
  8
0
100
AcDbBlockBegin
  2
*Model_Space
 70
     0
 10
0.0
 20
0.0
 30
0.0
  3
*Model_Space
  1

  0
ENDBLK
  5
20
330
1E
100
AcDbEntity
  8
0
100
AcDbBlockEnd
  0
BLOCK
  5
1B
330
1A
100
AcDbEntity
 67
     1
  8
0
100
AcDbBlockBegin
  2
*Paper_Space
 70
     0
 10
0.0
 20
0.0
 30
0.0
  3
*Paper_Space
  1

  0
ENDBLK
  5
1C
330
1A
100
AcDbEntity
 67
     1
  8
0
100
AcDbBlockEnd
  0
BLOCK
  5
320
330
31F
100
AcDbEntity
  8
0
100
AcDbBlockBegin
  2
*U0
 70
     1
 10
0.0
 20
0.0
 30
0.0
  3
*U0
  1

  0
LINE
  5
321
330
31F
100
AcDbEntity
  8
ﾚｲﾔ1
  6
Continuous
100
AcDbLine
 10
-136.257023
 20
19.606163
 30
0.0
 11
-135.632023
 21
20.456163
 31
0.0
  0
LINE
  5
322
330
31F
100
AcDbEntity
  8
ﾚｲﾔ1
  6
Continuous
100
AcDbLine
 10
-135.632023
 20
20.456163
 30
0.0
 11
-135.382023
 21
20.781163
 31
0.0
  0
LINE
  5
323
330
31F
100
AcDbEntity
  8
ﾚｲﾔ1
  6
Continuous
100
AcDbLine
 10
-135.382023
 20
20.781163
 30
0.0
 11
-135.132023
 21
21.056163
 31
0.0
  0
LINE
  5
324
330
31F
100
AcDbEntity
  8
ﾚｲﾔ1
  6
Continuous
100
AcDbLine
 10
-135.132023
 20
21.056163
 30
0.0
 11
-134.882023
 21
21.281163
 31
0.0
  0
LINE
  5
325
330
31F
100
AcDbEntity
  8
ﾚｲﾔ1
  6
Continuous
100
AcDbLine
 10
-134.882023
 20
21.281163
 30
0.0
 11
-134.657023
 21
21.456163
 31
0.0
  0
LINE
  5
326
330
31F
100
AcDbEntity
  8
ﾚｲﾔ1
  6
Continuous
100
AcDbLine
 10
-134.657023
 20
21.456163
 30
0.0
 11
-134.382023
 21
21.581163
 31
0.0
  0
LINE
  5
327
330
31F
100
AcDbEntity
  8
ﾚｲﾔ1
  6
Continuous
100
AcDbLine
 10
-134.382023
 20
21.581163
 30
0.0
 11
-134.032023
 21
21.706163
 31
0.0
  0
LINE
  5
328
330
31F
100
AcDbEntity
  8
ﾚｲﾔ1
  6
Continuous
100
AcDbLine
 10
-134.032023
 20
21.706163
 30
0.0
 11
-133.432023
 21
21.931163
 31
0.0
  0
LINE
  5
329
330
31F
100
AcDbEntity
  8
ﾚｲﾔ1
  6
Continuous
100
AcDbLine
 10
-133.432023
 20
21.931163
 30
0.0
 11
-132.607023
 21
22.231163
 31
0.0
  0
LINE
  5
32A
330
31F
100
AcDbEntity
  8
ﾚｲﾔ1
  6
Continuous
100
AcDbLine
 10
-132.607023
 20
22.231163
 30
0.0
 11
-131.557023
 21
22.606163
 31
0.0
  0
LINE
  5
32B
330
31F
100
AcDbEntity
  8
ﾚｲﾔ1
  6
Continuous
100
AcDbLine
 10
-131.557023
 20
22.606163
 30
0.0
 11
-130.257023
 21
23.081163
 31
0.0
  0
LINE
  5
32C
330
31F
100
AcDbEntity
  8
ﾚｲﾔ1
  6
Continuous
100
AcDbLine
 10
-130.257023
 20
23.081163
 30
0.0
 11
-128.857023
 21
23.481163
 31
0.0
  0
LINE
  5
32D
330
31F
100
AcDbEntity
  8
ﾚｲﾔ1
  6
Continuous
100
AcDbLine
 10
-128.857023
 20
23.481163
 30
0.0
 11
-127.457023
 21
23.681163
 31
0.0
  0
LINE
  5
32E
330
31F
100
AcDbEntity
  8
ﾚｲﾔ1
  6
Continuous
100
AcDbLine
 10
-127.457023
 20
23.681163
 30
0.0
 11
-126.057023
 21
23.681163
 31
0.0
  0
LINE
  5
32F
330
31F
100
AcDbEntity
  8
ﾚｲﾔ1
  6
Continuous
100
AcDbLine
 10
-126.057023
 20
23.681163
 30
0.0
 11
-124.657023
 21
23.481163
 31
0.0
  0
LINE
  5
330
330
31F
100
AcDbEntity
  8
ﾚｲﾔ1
  6
Continuous
100
AcDbLine
 10
-124.657023
 20
23.481163
 30
0.0
 11
-123.257023
 21
23.081163
 31
0.0
  0
LINE
  5
331
330
31F
100
AcDbEntity
  8
ﾚｲﾔ1
  6
Continuous
100
AcDbLine
 10
-123.257023
 20
23.081163
 30
0.0
 11
-121.982023
 21
22.606163
 31
0.0
  0
LINE
  5
332
330
31F
100
AcDbEntity
  8
ﾚｲﾔ1
  6
Continuous
100
AcDbLine
 10
-121.982023
 20
22.606163
 30
0.0
 11
-120.932023
 21
22.231163
 31
0.0
  0
LINE
  5
333
330
31F
100
AcDbEntity
  8
ﾚｲﾔ1
  6
Continuous
100
AcDbLine
 10
-120.932023
 20
22.231163
 30
0.0
 11
-120.107023
 21
21.931163
 31
0.0
  0
LINE
  5
334
330
31F
100
AcDbEntity
  8
ﾚｲﾔ1
  6
Continuous
100
AcDbLine
 10
-120.107023
 20
21.931163
 30
0.0
 11
-119.507023
 21
21.706163
 31
0.0
  0
LINE
  5
335
330
31F
100
AcDbEntity
  8
ﾚｲﾔ1
  6
Continuous
100
AcDbLine
 10
-119.507023
 20
21.706163
 30
0.0
 11
-119.132023
 21
21.581163
 31
0.0
  0
LINE
  5
336
330
31F
100
AcDbEntity
  8
ﾚｲﾔ1
  6
Continuous
100
AcDbLine
 10
-119.132023
 20
21.581163
 30
0.0
 11
-118.882023
 21
21.456163
 31
0.0
  0
LINE
  5
337
330
31F
100
AcDbEntity
  8
ﾚｲﾔ1
  6
Continuous
100
AcDbLine
 10
-118.882023
 20
21.456163
 30
0.0
 11
-118.632023
 21
21.281163
 31
0.0
  0
LINE
  5
338
330
31F
100
AcDbEntity
  8
ﾚｲﾔ1
  6
Continuous
100
AcDbLine
 10
-118.632023
 20
21.281163
 30
0.0
 11
-118.382023
 21
21.056163
 31
0.0
  0
LINE
  5
339
330
31F
100
AcDbEntity
  8
ﾚｲﾔ1
  6
Continuous
100
AcDbLine
 10
-118.382023
 20
21.056163
 30
0.0
 11
-118.132023
 21
20.781163
 31
0.0
  0
LINE
  5
33A
330
31F
100
AcDbEntity
  8
ﾚｲﾔ1
  6
Continuous
100
AcDbLine
 10
-118.132023
 20
20.781163
 30
0.0
 11
-117.882023
 21
20.456163
 31
0.0
  0
LINE
  5
33B
330
31F
100
AcDbEntity
  8
ﾚｲﾔ1
  6
Continuous
100
AcDbLine
 10
-117.882023
 20
20.456163
 30
0.0
 11
-117.257023
 21
19.606163
 31
0.0
  0
ENDBLK
  5
33C
330
31F
100
AcDbEntity
  8
0
100
AcDbBlockEnd
  0
BLOCK
  5
33E
330
33D
100
AcDbEntity
  8
0
100
AcDbBlockBegin
  2
*U1
 70
     1
 10
0.0
 20
0.0
 30
0.0
  3
*U1
  1

  0
LINE
  5
33F
330
33D
100
AcDbEntity
  8
ﾚｲﾔ1
  6
Continuous
100
AcDbLine
 10
-133.757023
 20
21.806163
 30
0.0
 11
-133.757023
 21
33.331163
 31
0.0
  0
LINE
  5
340
330
33D
100
AcDbEntity
  8
ﾚｲﾔ1
  6
Continuous
100
AcDbLine
 10
-133.757023
 20
33.331163
 30
0.0
 11
-132.757023
 21
34.331163
 31
0.0
  0
LINE
  5
341
330
33D
100
AcDbEntity
  8
ﾚｲﾔ1
  6
Continuous
100
AcDbLine
 10
-132.757023
 20
34.331163
 30
0.0
 11
-120.757023
 21
34.331163
 31
0.0
  0
LINE
  5
342
330
33D
100
AcDbEntity
  8
ﾚｲﾔ1
  6
Continuous
100
AcDbLine
 10
-120.757023
 20
34.331163
 30
0.0
 11
-119.757023
 21
33.331163
 31
0.0
  0
LINE
  5
343
330
33D
100
AcDbEntity
  8
ﾚｲﾔ1
  6
Continuous
100
AcDbLine
 10
-119.757023
 20
33.331163
 30
0.0
 11
-119.757023
 21
21.781163
 31
0.0
  0
ENDBLK
  5
344
330
33D
100
AcDbEntity
  8
0
100
AcDbBlockEnd
  0
BLOCK
  5
346
330
345
100
AcDbEntity
  8
0
100
AcDbBlockBegin
  2
*U2
 70
     1
 10
0.0
 20
0.0
 30
0.0
  3
*U2
  1

  0
LINE
  5
347
330
345
100
AcDbEntity
  8
ﾚｲﾔ1
  6
Continuous
100
AcDbLine
 10
-63.92299799999999
 20
0.331163
 30
0.0
 11
-63.92299799999999
 21
18.331163
 31
0.0
  0
LINE
  5
348
330
345
100
AcDbEntity
  8
ﾚｲﾔ1
  6
Continuous
100
AcDbLine
 10
-63.92299799999999
 20
18.331163
 30
0.0
 11
-62.922998
 21
19.331163
 31
0.0
  0
LINE
  5
349
330
345
100
AcDbEntity
  8
ﾚｲﾔ1
  6
Continuous
100
AcDbLine
 10
-62.922998
 20
19.331163
 30
0.0
 11
-45.922998
 21
19.331163
 31
0.0
  0
LINE
  5
34A
330
345
100
AcDbEntity
  8
ﾚｲﾔ1
  6
Continuous
100
AcDbLine
 10
-45.922998
 20
19.331163
 30
0.0
 11
-44.922998
 21
18.331163
 31
0.0
  0
LINE
  5
34B
330
345
100
AcDbEntity
  8
ﾚｲﾔ1
  6
Continuous
100
AcDbLine
 10
-44.922998
 20
18.331163
 30
0.0
 11
-44.922998
 21
0.331163
 31
0.0
  0
ENDBLK
  5
34C
330
345
100
AcDbEntity
  8
0
100
AcDbBlockEnd
  0
BLOCK
  5
34E
330
34D
100
AcDbEntity
  8
0
100
AcDbBlockBegin
  2
*U3
 70
     1
 10
0.0
 20
0.0
 30
0.0
  3
*U3
  1

  0
LINE
  5
34F
330
34D
100
AcDbEntity
  8
ﾚｲﾔ1
  6
Continuous
100
AcDbLine
 10
-63.92299799999999
 20
0.331163
 30
0.0
 11
-63.92299799999999
 21
-17.668837
 31
0.0
  0
LINE
  5
350
330
34D
100
AcDbEntity
  8
ﾚｲﾔ1
  6
Continuous
100
AcDbLine
 10
-63.92299799999999
 20
-17.668837
 30
0.0
 11
-62.922998
 21
-18.668837
 31
0.0
  0
LINE
  5
351
330
34D
100
AcDbEntity
  8
ﾚｲﾔ1
  6
Continuous
100
AcDbLine
 10
-62.922998
 20
-18.668837
 30
0.0
 11
-45.922998
 21
-18.668837
 31
0.0
  0
LINE
  5
352
330
34D
100
AcDbEntity
  8
ﾚｲﾔ1
  6
Continuous
100
AcDbLine
 10
-45.922998
 20
-18.668837
 30
0.0
 11
-44.922998
 21
-17.668837
 31
0.0
  0
LINE
  5
353
330
34D
100
AcDbEntity
  8
ﾚｲﾔ1
  6
Continuous
100
AcDbLine
 10
-44.922998
 20
-17.668837
 30
0.0
 11
-44.922998
 21
0.331163
 31
0.0
  0
ENDBLK
  5
354
330
34D
100
AcDbEntity
  8
0
100
AcDbBlockEnd
  0
BLOCK
  5
356
330
355
100
AcDbEntity
  8
0
100
AcDbBlockBegin
  2
*U4
 70
     1
 10
0.0
 20
0.0
 30
0.0
  3
*U4
  1

  0
LWPOLYLINE
  5
357
330
355
100
AcDbEntity
  8
寸法
100
AcDbPolyline
 90
        3
 70
     0
 43
0.0
 10
-125.615048
 20
37.10531
 10
-126.757023
 20
34.331163
 10
-124.380968
 20
36.162655
  0
LINE
  5
35C
330
355
100
AcDbEntity
  8
寸法
100
AcDbLine
 10
-126.757023
 20
34.331163
 30
0.0
 11
-110.64778
 21
55.42063
 31
0.0
  0
ENDBLK
  5
35D
330
355
100
AcDbEntity
  8
0
100
AcDbBlockEnd
  0
BLOCK
  5
664
330
660
100
AcDbEntity
  8
0
100
AcDbBlockBegin
  2
_Open30
 70
     0
 10
0.0
 20
0.0
 30
0.0
  3
_Open30
  1

  0
LINE
  5
661
330
660
100
AcDbEntity
  8
0
  6
Continuous
 62
     0
370
    -2
100
AcDbLine
 10
-1.0
 20
0.26794919
 30
0.0
 11
0.0
 21
0.0
 31
0.0
  0
LINE
  5
662
330
660
100
AcDbEntity
  8
0
  6
Continuous
 62
     0
370
    -2
100
AcDbLine
 10
0.0
 20
0.0
 30
0.0
 11
-1.0
 21
-0.26794919
 31
0.0
  0
LINE
  5
663
330
660
100
AcDbEntity
  8
0
  6
Continuous
 62
     0
370
    -2
100
AcDbLine
 10
0.0
 20
0.0
 30
0.0
 11
-1.0
 21
0.0
 31
0.0
  0
ENDBLK
  5
665
330
660
100
AcDbEntity
  8
0
100
AcDbBlockEnd
  0
BLOCK
  5
681
330
677
100
AcDbEntity
  8
0
100
AcDbBlockBegin
  2
*D6
 70
     1
 10
0.0
 20
0.0
 30
0.0
  3
*D6
  1

  0
LINE
  5
18FB
330
677
100
AcDbEntity
  8
寸法
  6
Continuous
 62
     1
440
 16777216
370
    -2
100
AcDbLine
 10
2833.205165397357
 20
247.9772777020587
 30
0.0
 11
2811.960032183958
 21
247.9772777020587
 31
0.0
  0
LINE
  5
18FC
330
677
100
AcDbEntity
  8
寸法
  6
Continuous
 62
     1
440
 16777216
370
    -2
100
AcDbLine
 10
2833.205165397357
 20
171.9772777020586
 30
0.0
 11
2811.960032183958
 21
171.9772777020586
 31
0.0
  0
LINE
  5
18FD
330
677
100
AcDbEntity
  8
寸法
  6
Continuous
 62
     1
440
 16777216
370
    -2
100
AcDbLine
 10
2812.140032183958
 20
242.9772777020587
 30
0.0
 11
2812.140032183958
 21
176.9772777020586
 31
0.0
  0
SOLID
  5
18FE
330
677
100
AcDbEntity
  8
寸法
  6
Continuous
 62
     1
440
 16777216
100
AcDbTrace
 10
2811.306698850624
 20
242.9772777020587
 30
0.0
 11
2812.973365517291
 21
242.9772777020587
 31
0.0
 12
2812.140032183958
 22
247.9772777020587
 32
0.0
 13
2812.140032183958
 23
247.9772777020587
 33
0.0
  0
SOLID
  5
18FF
330
677
100
AcDbEntity
  8
寸法
  6
Continuous
 62
     1
440
 16777216
100
AcDbTrace
 10
2811.306698850624
 20
176.9772777020586
 30
0.0
 11
2812.973365517291
 21
176.9772777020586
 31
0.0
 12
2812.140032183958
 22
171.9772777020586
 32
0.0
 13
2812.140032183958
 23
171.9772777020586
 33
0.0
  0
MTEXT
  5
1900
330
677
100
AcDbEntity
  8
寸法
  6
Continuous
 62
     1
440
 16777216
100
AcDbMText
 10
2805.241155779463
 20
209.9772777020578
 30
0.0
 40
10.0
 41
0.0
 46
0.0
 71
     5
 72
     1
  1
\A1;φ76
  7
WMF-ＭＳ Ｐ明朝0
 11
0.0000000000000001
 21
1.0
 31
0.0
 73
     1
 44
1.0
  0
POINT
  5
1901
330
677
100
AcDbEntity
  8
Defpoints
  6
Continuous
 62
     0
440
 16777216
100
AcDbPoint
 10
2833.267665397357
 20
247.9772777020587
 30
0.0
  0
POINT
  5
1902
330
677
100
AcDbEntity
  8
Defpoints
  6
Continuous
 62
     0
440
 16777216
100
AcDbPoint
 10
2833.267665397357
 20
171.9772777020586
 30
0.0
  0
POINT
  5
1903
330
677
100
AcDbEntity
  8
Defpoints
  6
Continuous
 62
     0
440
 16777216
100
AcDbPoint
 10
2812.140032183958
 20
171.9772777020586
 30
0.0
  0
ENDBLK
  5
682
330
677
100
AcDbEntity
  8
0
100
AcDbBlockEnd
  0
BLOCK
  5
697
330
68D
100
AcDbEntity
  8
0
100
AcDbBlockBegin
  2
*D7
 70
     1
 10
0.0
 20
0.0
 30
0.0
  3
*D7
  1

  0
LINE
  5
18F2
330
68D
100
AcDbEntity
  8
寸法
  6
Continuous
 62
     1
440
 16777216
370
    -2
100
AcDbLine
 10
3211.330167397357
 20
252.9772777020587
 30
0.0
 11
3244.074947715822
 21
252.9772777020587
 31
0.0
  0
LINE
  5
18F3
330
68D
100
AcDbEntity
  8
寸法
  6
Continuous
 62
     1
440
 16777216
370
    -2
100
AcDbLine
 10
3211.330167397357
 20
166.9772777020586
 30
0.0
 11
3244.074947715822
 21
166.9772777020586
 31
0.0
  0
LINE
  5
18F4
330
68D
100
AcDbEntity
  8
寸法
  6
Continuous
 62
     1
440
 16777216
370
    -2
100
AcDbLine
 10
3243.894947715823
 20
247.9772777020587
 30
0.0
 11
3243.894947715823
 21
171.9772777020586
 31
0.0
  0
SOLID
  5
18F5
330
68D
100
AcDbEntity
  8
寸法
  6
Continuous
 62
     1
440
 16777216
100
AcDbTrace
 10
3243.061614382489
 20
247.9772777020587
 30
0.0
 11
3244.728281049156
 21
247.9772777020587
 31
0.0
 12
3243.894947715823
 22
252.9772777020587
 32
0.0
 13
3243.894947715823
 23
252.9772777020587
 33
0.0
  0
SOLID
  5
18F6
330
68D
100
AcDbEntity
  8
寸法
  6
Continuous
 62
     1
440
 16777216
100
AcDbTrace
 10
3243.061614382489
 20
171.9772777020586
 30
0.0
 11
3244.728281049156
 21
171.9772777020586
 31
0.0
 12
3243.894947715823
 22
166.9772777020586
 32
0.0
 13
3243.894947715823
 23
166.9772777020586
 33
0.0
  0
MTEXT
  5
18F7
330
68D
100
AcDbEntity
  8
寸法
  6
Continuous
 62
     1
440
 16777216
100
AcDbMText
 10
3236.996071311327
 20
209.9772777020577
 30
0.0
 40
10.0
 41
0.0
 46
0.0
 71
     5
 72
     1
  1
\A1;φ86
  7
WMF-ＭＳ Ｐ明朝0
 11
0.0000000000000001
 21
1.0
 31
0.0
 73
     1
 44
1.0
  0
POINT
  5
18F8
330
68D
100
AcDbEntity
  8
Defpoints
  6
Continuous
 62
     0
440
 16777216
100
AcDbPoint
 10
3211.267667397358
 20
252.9772777020587
 30
0.0
  0
POINT
  5
18F9
330
68D
100
AcDbEntity
  8
Defpoints
  6
Continuous
 62
     0
440
 16777216
100
AcDbPoint
 10
3211.267667397358
 20
166.9772777020586
 30
0.0
  0
POINT
  5
18FA
330
68D
100
AcDbEntity
  8
Defpoints
  6
Continuous
 62
     0
440
 16777216
100
AcDbPoint
 10
3243.894947715823
 20
166.9772777020586
 30
0.0
  0
ENDBLK
  5
698
330
68D
100
AcDbEntity
  8
0
100
AcDbBlockEnd
  0
BLOCK
  5
6B2
330
6A8
100
AcDbEntity
  8
0
100
AcDbBlockBegin
  2
*D8
 70
     1
 10
0.0
 20
0.0
 30
0.0
  3
*D8
  1

  0
LINE
  5
1918
330
6A8
100
AcDbEntity
  8
寸法
  6
Continuous
 62
     1
440
 16777216
370
    -2
100
AcDbLine
 10
2831.267665397356
 20
246.0397777020586
 30
0.0
 11
2831.267665397356
 21
317.9746867909319
 31
0.0
  0
LINE
  5
1919
330
6A8
100
AcDbEntity
  8
寸法
  6
Continuous
 62
     1
440
 16777216
370
    -2
100
AcDbLine
 10
2869.267665397356
 20
246.0397777020586
 30
0.0
 11
2869.267665397356
 21
317.9746867909319
 31
0.0
  0
LINE
  5
191A
330
6A8
100
AcDbEntity
  8
寸法
  6
Continuous
 62
     1
440
 16777216
370
    -2
100
AcDbLine
 10
2836.267665397356
 20
317.7946867909319
 30
0.0
 11
2864.267665397356
 21
317.7946867909319
 31
0.0
  0
SOLID
  5
191B
330
6A8
100
AcDbEntity
  8
寸法
  6
Continuous
 62
     1
440
 16777216
100
AcDbTrace
 10
2836.267665397356
 20
318.6280201242652
 30
0.0
 11
2836.267665397356
 21
316.9613534575986
 31
0.0
 12
2831.267665397356
 22
317.7946867909319
 32
0.0
 13
2831.267665397356
 23
317.7946867909319
 33
0.0
  0
SOLID
  5
191C
330
6A8
100
AcDbEntity
  8
寸法
  6
Continuous
 62
     1
440
 16777216
100
AcDbTrace
 10
2864.267665397356
 20
318.6280201242652
 30
0.0
 11
2864.267665397356
 21
316.9613534575986
 31
0.0
 12
2869.267665397356
 22
317.7946867909319
 32
0.0
 13
2869.267665397356
 23
317.7946867909319
 33
0.0
  0
MTEXT
  5
191D
330
6A8
100
AcDbEntity
  8
寸法
  6
Continuous
 62
     1
440
 16777216
100
AcDbMText
 10
2850.267665397356
 20
323.7946867909319
 30
0.0
 40
10.0
 41
0.0
 46
0.0
 71
     5
 72
     1
  1
\A1;38
  7
WMF-ＭＳ Ｐ明朝0
 73
     1
 44
1.0
  0
POINT
  5
191E
330
6A8
100
AcDbEntity
  8
Defpoints
  6
Continuous
 62
     0
440
 16777216
100
AcDbPoint
 10
2831.267665397356
 20
245.9772777020586
 30
0.0
  0
POINT
  5
191F
330
6A8
100
AcDbEntity
  8
Defpoints
  6
Continuous
 62
     0
440
 16777216
100
AcDbPoint
 10
2869.267665397356
 20
245.9772777020586
 30
0.0
  0
POINT
  5
1920
330
6A8
100
AcDbEntity
  8
Defpoints
  6
Continuous
 62
     0
440
 16777216
100
AcDbPoint
 10
2869.267665397356
 20
317.7946867909319
 30
0.0
  0
ENDBLK
  5
6B3
330
6A8
100
AcDbEntity
  8
0
100
AcDbBlockEnd
  0
BLOCK
  5
6CD
330
6C2
100
AcDbEntity
  8
0
100
AcDbBlockBegin
  2
*D9
 70
     1
 10
0.0
 20
0.0
 30
0.0
  3
*D9
  1

  0
LINE
  5
190E
330
6C2
100
AcDbEntity
  8
寸法
  6
Continuous
 62
     1
440
 16777216
370
    -2
100
AcDbLine
 10
2869.267665397356
 20
246.1022777020586
 30
0.0
 11
2869.267665397356
 21
317.9788755434007
 31
0.0
  0
LINE
  5
190F
330
6C2
100
AcDbEntity
  8
寸法
  6
Continuous
 62
     1
440
 16777216
370
    -2
100
AcDbLine
 10
2878.267665397356
 20
249.4897777020585
 30
0.0
 11
2878.267665397356
 21
317.9788755434007
 31
0.0
  0
LINE
  5
1910
330
6C2
100
AcDbEntity
  8
寸法
  6
Continuous
 62
     1
440
 16777216
370
    -2
100
AcDbLine
 10
2864.267665397356
 20
317.7988755434006
 30
0.0
 11
2859.267665397356
 21
317.7988755434006
 31
0.0
  0
LINE
  5
1911
330
6C2
100
AcDbEntity
  8
寸法
  6
Continuous
 62
     1
440
 16777216
370
    -2
100
AcDbLine
 10
2883.267665397356
 20
317.7988755434006
 30
0.0
 11
2888.267665397356
 21
317.7988755434006
 31
0.0
  0
SOLID
  5
1912
330
6C2
100
AcDbEntity
  8
寸法
  6
Continuous
 62
     1
440
 16777216
100
AcDbTrace
 10
2864.267665397356
 20
318.632208876734
 30
0.0
 11
2864.267665397356
 21
316.9655422100673
 31
0.0
 12
2869.267665397356
 22
317.7988755434006
 32
0.0
 13
2869.267665397356
 23
317.7988755434006
 33
0.0
  0
SOLID
  5
1913
330
6C2
100
AcDbEntity
  8
寸法
  6
Continuous
 62
     1
440
 16777216
100
AcDbTrace
 10
2883.267665397356
 20
318.632208876734
 30
0.0
 11
2883.267665397356
 21
316.9655422100673
 31
0.0
 12
2878.267665397356
 22
317.7988755434006
 32
0.0
 13
2878.267665397356
 23
317.7988755434006
 33
0.0
  0
MTEXT
  5
1914
330
6C2
100
AcDbEntity
  8
寸法
  6
Continuous
 62
     1
440
 16777216
100
AcDbMText
 10
2873.767665397356
 20
323.7988755434006
 30
0.0
 40
10.0
 41
0.0
 46
0.0
 71
     5
 72
     1
  1
\A1;9
  7
WMF-ＭＳ Ｐ明朝0
 73
     1
 44
1.0
  0
POINT
  5
1915
330
6C2
100
AcDbEntity
  8
Defpoints
  6
Continuous
 62
     0
440
 16777216
100
AcDbPoint
 10
2869.267665397356
 20
246.0397777020586
 30
0.0
  0
POINT
  5
1916
330
6C2
100
AcDbEntity
  8
Defpoints
  6
Continuous
 62
     0
440
 16777216
100
AcDbPoint
 10
2878.267665397356
 20
249.4272777020585
 30
0.0
  0
POINT
  5
1917
330
6C2
100
AcDbEntity
  8
Defpoints
  6
Continuous
 62
     0
440
 16777216
100
AcDbPoint
 10
2878.267665397356
 20
317.7988755434006
 30
0.0
  0
ENDBLK
  5
6CE
330
6C2
100
AcDbEntity
  8
0
100
AcDbBlockEnd
  0
BLOCK
  5
6DA
330
6D0
100
AcDbEntity
  8
0
100
AcDbBlockBegin
  2
*D10
 70
     1
 10
0.0
 20
0.0
 30
0.0
  3
*D10
  1

  0
LINE
  5
18C4
330
6D0
100
AcDbEntity
  8
寸法
  6
Continuous
 62
     1
440
 16777216
370
    -2
100
AcDbLine
 10
2960.767665397355
 20
276.1397777020586
 30
0.0
 11
2960.767665397355
 21
317.9830455149695
 31
0.0
  0
LINE
  5
18C5
330
6D0
100
AcDbEntity
  8
寸法
  6
Continuous
 62
     1
440
 16777216
370
    -2
100
AcDbLine
 10
2878.267665397356
 20
317.7613917020585
 30
0.0
 11
2878.267665397356
 21
317.6230455149695
 31
0.0
  0
LINE
  5
18C6
330
6D0
100
AcDbEntity
  8
寸法
  6
Continuous
 62
     1
440
 16777216
370
    -2
100
AcDbLine
 10
2955.767665397356
 20
317.8030455149695
 30
0.0
 11
2883.267665397356
 21
317.8030455149695
 31
0.0
  0
SOLID
  5
18C7
330
6D0
100
AcDbEntity
  8
寸法
  6
Continuous
 62
     1
440
 16777216
100
AcDbTrace
 10
2955.767665397356
 20
318.6363788483028
 30
0.0
 11
2955.767665397356
 21
316.9697121816362
 31
0.0
 12
2960.767665397355
 22
317.8030455149695
 32
0.0
 13
2960.767665397355
 23
317.8030455149695
 33
0.0
  0
SOLID
  5
18C8
330
6D0
100
AcDbEntity
  8
寸法
  6
Continuous
 62
     1
440
 16777216
100
AcDbTrace
 10
2883.267665397356
 20
318.6363788483028
 30
0.0
 11
2883.267665397356
 21
316.9697121816362
 31
0.0
 12
2878.267665397356
 22
317.8030455149695
 32
0.0
 13
2878.267665397356
 23
317.8030455149695
 33
0.0
  0
MTEXT
  5
18C9
330
6D0
100
AcDbEntity
  8
寸法
  6
Continuous
 62
     1
440
 16777216
100
AcDbMText
 10
2919.517665397356
 20
323.8030455149695
 30
0.0
 40
10.0
 41
0.0
 46
0.0
 71
     5
 72
     1
  1
\A1;83
  7
WMF-ＭＳ Ｐ明朝0
 73
     1
 44
1.0
  0
POINT
  5
18CA
330
6D0
100
AcDbEntity
  8
Defpoints
  6
Continuous
 62
     0
440
 16777216
100
AcDbPoint
 10
2960.767665397355
 20
276.0772777020585
 30
0.0
  0
POINT
  5
18CB
330
6D0
100
AcDbEntity
  8
Defpoints
  6
Continuous
 62
     0
440
 16777216
100
AcDbPoint
 10
2878.267665397356
 20
317.8238917020585
 30
0.0
  0
POINT
  5
18CC
330
6D0
100
AcDbEntity
  8
Defpoints
  6
Continuous
 62
     0
440
 16777216
100
AcDbPoint
 10
2878.267665397356
 20
317.8030455149695
 30
0.0
  0
ENDBLK
  5
6DB
330
6D0
100
AcDbEntity
  8
0
100
AcDbBlockEnd
  0
BLOCK
  5
6E7
330
6DD
100
AcDbEntity
  8
0
100
AcDbBlockBegin
  2
*D11
 70
     1
 10
0.0
 20
0.0
 30
0.0
  3
*D11
  1

  0
LINE
  5
1921
330
6DD
100
AcDbEntity
  8
寸法
  6
Continuous
 62
     1
440
 16777216
370
    -2
100
AcDbLine
 10
2960.767665397355
 20
317.8655455149695
 30
0.0
 11
2960.767665397355
 21
317.9830455149695
 31
0.0
  0
LINE
  5
1922
330
6DD
100
AcDbEntity
  8
寸法
  6
Continuous
 62
     1
440
 16777216
370
    -2
100
AcDbLine
 10
3170.367667397356
 20
276.1397777020586
 30
0.0
 11
3170.367667397356
 21
317.9830455149695
 31
0.0
  0
LINE
  5
1923
330
6DD
100
AcDbEntity
  8
寸法
  6
Continuous
 62
     1
440
 16777216
370
    -2
100
AcDbLine
 10
2965.767665397356
 20
317.8030455149695
 30
0.0
 11
3165.367667397356
 21
317.8030455149695
 31
0.0
  0
SOLID
  5
1924
330
6DD
100
AcDbEntity
  8
寸法
  6
Continuous
 62
     1
440
 16777216
100
AcDbTrace
 10
2965.767665397356
 20
318.6363788483028
 30
0.0
 11
2965.767665397356
 21
316.9697121816362
 31
0.0
 12
2960.767665397355
 22
317.8030455149695
 32
0.0
 13
2960.767665397355
 23
317.8030455149695
 33
0.0
  0
SOLID
  5
1925
330
6DD
100
AcDbEntity
  8
寸法
  6
Continuous
 62
     1
440
 16777216
100
AcDbTrace
 10
3165.367667397356
 20
318.6363788483028
 30
0.0
 11
3165.367667397356
 21
316.9697121816362
 31
0.0
 12
3170.367667397356
 22
317.8030455149695
 32
0.0
 13
3170.367667397356
 23
317.8030455149695
 33
0.0
  0
MTEXT
  5
1926
330
6DD
100
AcDbEntity
  8
寸法
  6
Continuous
 62
     1
440
 16777216
100
AcDbMText
 10
3065.567666397356
 20
323.8030455149695
 30
0.0
 40
10.0
 41
0.0
 46
0.0
 71
     5
 72
     1
  1
\A1;209
  7
WMF-ＭＳ Ｐ明朝0
 73
     1
 44
1.0
  0
POINT
  5
1927
330
6DD
100
AcDbEntity
  8
Defpoints
  6
Continuous
 62
     0
440
 16777216
100
AcDbPoint
 10
2960.767665397355
 20
317.8030455149695
 30
0.0
  0
POINT
  5
1928
330
6DD
100
AcDbEntity
  8
Defpoints
  6
Continuous
 62
     0
440
 16777216
100
AcDbPoint
 10
3170.367667397356
 20
276.0772777020585
 30
0.0
  0
POINT
  5
1929
330
6DD
100
AcDbEntity
  8
Defpoints
  6
Continuous
 62
     0
440
 16777216
100
AcDbPoint
 10
3170.367667397356
 20
317.8030455149695
 30
0.0
  0
ENDBLK
  5
6E8
330
6DD
100
AcDbEntity
  8
0
100
AcDbBlockEnd
  0
BLOCK
  5
6FD
330
6F3
100
AcDbEntity
  8
0
100
AcDbBlockBegin
  2
*D12
 70
     1
 10
0.0
 20
0.0
 30
0.0
  3
*D12
  1

  0
LINE
  5
192A
330
6F3
100
AcDbEntity
  8
寸法
  6
Continuous
 62
     1
440
 16777216
370
    -2
100
AcDbLine
 10
3170.4221068675
 20
317.8564722699455
 30
0.0
 11
3170.4221068675
 21
317.9739722699455
 31
0.0
  0
LINE
  5
192B
330
6F3
100
AcDbEntity
  8
寸法
  6
Continuous
 62
     1
440
 16777216
370
    -2
100
AcDbLine
 10
3213.267667397356
 20
251.4897777020585
 30
0.0
 11
3213.267667397356
 21
317.9739722699455
 31
0.0
  0
LINE
  5
192C
330
6F3
100
AcDbEntity
  8
寸法
  6
Continuous
 62
     1
440
 16777216
370
    -2
100
AcDbLine
 10
3175.4221068675
 20
317.7939722699455
 30
0.0
 11
3208.267667397356
 21
317.7939722699455
 31
0.0
  0
SOLID
  5
192D
330
6F3
100
AcDbEntity
  8
寸法
  6
Continuous
 62
     1
440
 16777216
100
AcDbTrace
 10
3175.4221068675
 20
318.6273056032788
 30
0.0
 11
3175.4221068675
 21
316.9606389366121
 31
0.0
 12
3170.4221068675
 22
317.7939722699455
 32
0.0
 13
3170.4221068675
 23
317.7939722699455
 33
0.0
  0
SOLID
  5
192E
330
6F3
100
AcDbEntity
  8
寸法
  6
Continuous
 62
     1
440
 16777216
100
AcDbTrace
 10
3208.267667397356
 20
318.6273056032788
 30
0.0
 11
3208.267667397356
 21
316.9606389366121
 31
0.0
 12
3213.267667397356
 22
317.7939722699455
 32
0.0
 13
3213.267667397356
 23
317.7939722699455
 33
0.0
  0
MTEXT
  5
192F
330
6F3
100
AcDbEntity
  8
寸法
  6
Continuous
 62
     1
440
 16777216
100
AcDbMText
 10
3191.844887132428
 20
323.7939722699455
 30
0.0
 40
10.0
 41
0.0
 46
0.0
 71
     5
 72
     1
  1
\A1;43
  7
WMF-ＭＳ Ｐ明朝0
 73
     1
 44
1.0
  0
POINT
  5
1930
330
6F3
100
AcDbEntity
  8
Defpoints
  6
Continuous
 62
     0
440
 16777216
100
AcDbPoint
 10
3170.4221068675
 20
317.7939722699455
 30
0.0
  0
POINT
  5
1931
330
6F3
100
AcDbEntity
  8
Defpoints
  6
Continuous
 62
     0
440
 16777216
100
AcDbPoint
 10
3213.267667397356
 20
251.4272777020585
 30
0.0
  0
POINT
  5
1932
330
6F3
100
AcDbEntity
  8
Defpoints
  6
Continuous
 62
     0
440
 16777216
100
AcDbPoint
 10
3213.267667397356
 20
317.7939722699455
 30
0.0
  0
ENDBLK
  5
6FE
330
6F3
100
AcDbEntity
  8
0
100
AcDbBlockEnd
  0
BLOCK
  5
70A
330
700
100
AcDbEntity
  8
0
100
AcDbBlockBegin
  2
*D13
 70
     1
 10
0.0
 20
0.0
 30
0.0
  3
*D13
  1

  0
LINE
  5
18BB
330
700
100
AcDbEntity
  8
寸法
  6
Continuous
 62
     1
440
 16777216
370
    -2
100
AcDbLine
 10
2831.267665397356
 20
317.8863917020585
 30
0.0
 11
2831.267665397356
 21
338.8021050903252
 31
0.0
  0
LINE
  5
18BC
330
700
100
AcDbEntity
  8
寸法
  6
Continuous
 62
     1
440
 16777216
370
    -2
100
AcDbLine
 10
3213.267667397356
 20
317.7098354490799
 30
0.0
 11
3213.267667397356
 21
338.8021050903252
 31
0.0
  0
LINE
  5
18BD
330
700
100
AcDbEntity
  8
寸法
  6
Continuous
 62
     1
440
 16777216
370
    -2
100
AcDbLine
 10
2836.267665397356
 20
338.6221050903253
 30
0.0
 11
3208.267667397356
 21
338.6221050903253
 31
0.0
  0
SOLID
  5
18BE
330
700
100
AcDbEntity
  8
寸法
  6
Continuous
 62
     1
440
 16777216
100
AcDbTrace
 10
2836.267665397356
 20
339.4554384236585
 30
0.0
 11
2836.267665397356
 21
337.7887717569919
 31
0.0
 12
2831.267665397356
 22
338.6221050903253
 32
0.0
 13
2831.267665397356
 23
338.6221050903253
 33
0.0
  0
SOLID
  5
18BF
330
700
100
AcDbEntity
  8
寸法
  6
Continuous
 62
     1
440
 16777216
100
AcDbTrace
 10
3208.267667397356
 20
339.4554384236585
 30
0.0
 11
3208.267667397356
 21
337.7887717569919
 31
0.0
 12
3213.267667397356
 22
338.6221050903253
 32
0.0
 13
3213.267667397356
 23
338.6221050903253
 33
0.0
  0
MTEXT
  5
18C0
330
700
100
AcDbEntity
  8
寸法
  6
Continuous
 62
     1
440
 16777216
100
AcDbMText
 10
3022.267666397356
 20
344.6221050903253
 30
0.0
 40
10.0
 41
0.0
 46
0.0
 71
     5
 72
     1
  1
\A1;382
  7
WMF-ＭＳ Ｐ明朝0
 73
     1
 44
1.0
  0
POINT
  5
18C1
330
700
100
AcDbEntity
  8
Defpoints
  6
Continuous
 62
     0
440
 16777216
100
AcDbPoint
 10
2831.267665397356
 20
317.8238917020585
 30
0.0
  0
POINT
  5
18C2
330
700
100
AcDbEntity
  8
Defpoints
  6
Continuous
 62
     0
440
 16777216
100
AcDbPoint
 10
3213.267667397356
 20
317.6473354490799
 30
0.0
  0
POINT
  5
18C3
330
700
100
AcDbEntity
  8
Defpoints
  6
Continuous
 62
     0
440
 16777216
100
AcDbPoint
 10
3213.267667397356
 20
338.6221050903253
 30
0.0
  0
ENDBLK
  5
70B
330
700
100
AcDbEntity
  8
0
100
AcDbBlockEnd
  0
BLOCK
  5
A90
330
A8C
100
AcDbEntity
  8
0
100
AcDbBlockBegin
  2
_Open
 70
     0
 10
0.0
 20
0.0
 30
0.0
  3
_Open
  1

  0
LINE
  5
A8D
330
A8C
100
AcDbEntity
  8
0
  6
ByBlock
 62
     0
370
    -2
100
AcDbLine
 10
-1.0
 20
0.1666666666666666
 30
0.0
 11
0.0
 21
0.0
 31
0.0
  0
LINE
  5
A8E
330
A8C
100
AcDbEntity
  8
0
  6
ByBlock
 62
     0
370
    -2
100
AcDbLine
 10
-1.0
 20
-0.1666666666666666
 30
0.0
 11
0.0
 21
0.0
 31
0.0
  0
LINE
  5
A8F
330
A8C
100
AcDbEntity
  8
0
  6
ByBlock
 62
     0
370
    -2
100
AcDbLine
 10
0.0
 20
0.0
 30
0.0
 11
-1.0
 21
0.0
 31
0.0
  0
ENDBLK
  5
A91
330
A8C
100
AcDbEntity
  8
0
100
AcDbBlockEnd
  0
BLOCK
  5
DE3
330
DE2
100
AcDbEntity
  8
0
100
AcDbBlockBegin
  2
*D15
 70
     1
 10
0.0
 20
0.0
 30
0.0
  3
*D15
  1

  0
LINE
  5
DE4
330
DE2
100
AcDbEntity
  8
寸法
  6
Continuous
 62
     1
440
 16777216
370
    -2
100
AcDbLine
 10
1959.789543399793
 20
282.330896025249
 30
0.0
 11
1959.789543399793
 21
238.330896025249
 31
0.0
  0
SOLID
  5
DE5
330
DE2
100
AcDbEntity
  8
寸法
  6
Continuous
 62
     1
440
 16777216
100
AcDbTrace
 10
1959.289543399792
 20
282.330896025249
 30
0.0
 11
1960.289543399793
 21
282.330896025249
 31
0.0
 12
1959.789543399793
 22
285.330896025249
 32
0.0
 13
1959.789543399793
 23
285.330896025249
 33
0.0
  0
SOLID
  5
DE6
330
DE2
100
AcDbEntity
  8
寸法
  6
Continuous
 62
     1
440
 16777216
100
AcDbTrace
 10
1959.289543399792
 20
238.330896025249
 30
0.0
 11
1960.289543399793
 21
238.330896025249
 31
0.0
 12
1959.789543399793
 22
235.330896025249
 32
0.0
 13
1959.789543399793
 23
235.330896025249
 33
0.0
  0
MTEXT
  5
DE7
330
DE2
100
AcDbEntity
  8
寸法
  6
Continuous
 62
     1
440
 16777216
100
AcDbMText
 10
1956.340105197545
 20
260.3308960252483
 30
0.0
 40
5.0
 41
0.0
 46
0.0
 71
     5
 72
     1
  1
\A1;φ50
  7
WMF-ＭＳ Ｐ明朝0
 11
0.0000000000000001
 21
1.0
 31
0.0
 73
     1
 44
1.0
  0
POINT
  5
DE8
330
DE2
100
AcDbEntity
  8
Defpoints
  6
Continuous
 62
     0
440
 16777216
100
AcDbPoint
 10
1959.789543399789
 20
285.330896025249
 30
0.0
  0
POINT
  5
DE9
330
DE2
100
AcDbEntity
  8
Defpoints
  6
Continuous
 62
     0
440
 16777216
100
AcDbPoint
 10
1959.789543399789
 20
235.330896025249
 30
0.0
  0
POINT
  5
DEA
330
DE2
100
AcDbEntity
  8
Defpoints
  6
Continuous
 62
     0
440
 16777216
100
AcDbPoint
 10
1959.789543399793
 20
235.330896025249
 30
0.0
  0
ENDBLK
  5
DEB
330
DE2
100
AcDbEntity
  8
0
100
AcDbBlockEnd
  0
BLOCK
  5
DED
330
DEC
100
AcDbEntity
  8
0
100
AcDbBlockBegin
  2
*D16
 70
     1
 10
0.0
 20
0.0
 30
0.0
  3
*D16
  1

  0
LINE
  5
DEE
330
DEC
100
AcDbEntity
  8
寸法
  6
Continuous
 62
     1
440
 16777216
370
    -2
100
AcDbLine
 10
1942.460798399787
 20
328.533454025249
 30
0.0
 11
1942.460798399787
 21
353.8760805220413
 31
0.0
  0
LINE
  5
DEF
330
DEC
100
AcDbEntity
  8
寸法
  6
Continuous
 62
     1
440
 16777216
370
    -2
100
AcDbLine
 10
1945.460798399787
 20
353.3760805220413
 30
0.0
 11
1986.460798399788
 21
353.3760805220413
 31
0.0
  0
SOLID
  5
DF0
330
DEC
100
AcDbEntity
  8
寸法
  6
Continuous
 62
     1
440
 16777216
100
AcDbTrace
 10
1945.460798399787
 20
353.8760805220413
 30
0.0
 11
1945.460798399787
 21
352.8760805220413
 31
0.0
 12
1942.460798399787
 22
353.3760805220413
 32
0.0
 13
1942.460798399787
 23
353.3760805220413
 33
0.0
  0
SOLID
  5
DF1
330
DEC
100
AcDbEntity
  8
寸法
  6
Continuous
 62
     1
440
 16777216
100
AcDbTrace
 10
1986.460798399788
 20
353.8760805220413
 30
0.0
 11
1986.460798399788
 21
352.8760805220413
 31
0.0
 12
1989.460798399788
 22
353.3760805220413
 32
0.0
 13
1989.460798399788
 23
353.3760805220413
 33
0.0
  0
MTEXT
  5
DF2
330
DEC
100
AcDbEntity
  8
寸法
  6
Continuous
 62
     1
440
 16777216
100
AcDbMText
 10
1965.960798399788
 20
356.3760805220413
 30
0.0
 40
5.0
 41
0.0
 46
0.0
 71
     5
 72
     1
  1
\A1;47
  7
WMF-ＭＳ Ｐ明朝0
 73
     1
 44
1.0
  0
POINT
  5
DF3
330
DEC
100
AcDbEntity
  8
Defpoints
  6
Continuous
 62
     0
440
 16777216
100
AcDbPoint
 10
1942.460798399787
 20
328.033454025249
 30
0.0
  0
POINT
  5
DF4
330
DEC
100
AcDbEntity
  8
Defpoints
  6
Continuous
 62
     0
440
 16777216
100
AcDbPoint
 10
1989.460798399788
 20
353.3760805220413
 30
0.0
  0
POINT
  5
DF5
330
DEC
100
AcDbEntity
  8
Defpoints
  6
Continuous
 62
     0
440
 16777216
100
AcDbPoint
 10
1989.460798399788
 20
353.3760805220413
 30
0.0
  0
ENDBLK
  5
DF6
330
DEC
100
AcDbEntity
  8
0
100
AcDbBlockEnd
  0
BLOCK
  5
DF8
330
DF7
100
AcDbEntity
  8
0
100
AcDbBlockBegin
  2
*D17
 70
     1
 10
0.0
 20
0.0
 30
0.0
  3
*D17
  1

  0
LINE
  5
DF9
330
DF7
100
AcDbEntity
  8
寸法
  6
Continuous
 62
     1
440
 16777216
370
    -2
100
AcDbLine
 10
1989.460798399788
 20
287.0308960252489
 30
0.0
 11
1989.460798399788
 21
353.8760805220413
 31
0.0
  0
LINE
  5
DFA
330
DF7
100
AcDbEntity
  8
寸法
  6
Continuous
 62
     1
440
 16777216
370
    -2
100
AcDbLine
 10
2046.660798399788
 20
316.6243940252489
 30
0.0
 11
2046.660798399788
 21
353.8760805220413
 31
0.0
  0
LINE
  5
DFB
330
DF7
100
AcDbEntity
  8
寸法
  6
Continuous
 62
     1
440
 16777216
370
    -2
100
AcDbLine
 10
1992.460798399788
 20
353.3760805220413
 30
0.0
 11
2043.660798399788
 21
353.3760805220413
 31
0.0
  0
SOLID
  5
DFC
330
DF7
100
AcDbEntity
  8
寸法
  6
Continuous
 62
     1
440
 16777216
100
AcDbTrace
 10
1992.460798399788
 20
353.8760805220413
 30
0.0
 11
1992.460798399788
 21
352.8760805220413
 31
0.0
 12
1989.460798399788
 22
353.3760805220413
 32
0.0
 13
1989.460798399788
 23
353.3760805220413
 33
0.0
  0
SOLID
  5
DFD
330
DF7
100
AcDbEntity
  8
寸法
  6
Continuous
 62
     1
440
 16777216
100
AcDbTrace
 10
2043.660798399788
 20
353.8760805220413
 30
0.0
 11
2043.660798399788
 21
352.8760805220413
 31
0.0
 12
2046.660798399788
 22
353.3760805220413
 32
0.0
 13
2046.660798399788
 23
353.3760805220413
 33
0.0
  0
MTEXT
  5
DFE
330
DF7
100
AcDbEntity
  8
寸法
  6
Continuous
 62
     1
440
 16777216
100
AcDbMText
 10
2018.060798399788
 20
356.3760805220413
 30
0.0
 40
5.0
 41
0.0
 46
0.0
 71
     5
 72
     1
  1
\A1;57
  7
WMF-ＭＳ Ｐ明朝0
 73
     1
 44
1.0
  0
POINT
  5
DFF
330
DF7
100
AcDbEntity
  8
Defpoints
  6
Continuous
 62
     0
440
 16777216
100
AcDbPoint
 10
1989.460798399788
 20
286.5308960252489
 30
0.0
  0
POINT
  5
E00
330
DF7
100
AcDbEntity
  8
Defpoints
  6
Continuous
 62
     0
440
 16777216
100
AcDbPoint
 10
2046.660798399788
 20
316.1243940252489
 30
0.0
  0
POINT
  5
E01
330
DF7
100
AcDbEntity
  8
Defpoints
  6
Continuous
 62
     0
440
 16777216
100
AcDbPoint
 10
2046.660798399788
 20
353.3760805220413
 30
0.0
  0
ENDBLK
  5
E02
330
DF7
100
AcDbEntity
  8
0
100
AcDbBlockEnd
  0
BLOCK
  5
E04
330
E03
100
AcDbEntity
  8
0
100
AcDbBlockBegin
  2
*D18
 70
     1
 10
0.0
 20
0.0
 30
0.0
  3
*D18
  1

  0
LINE
  5
E05
330
E03
100
AcDbEntity
  8
寸法
  6
Continuous
 62
     1
440
 16777216
370
    -2
100
AcDbLine
 10
2049.660798399788
 20
353.3760805220413
 30
0.0
 11
2140.460798399788
 21
353.3760805220413
 31
0.0
  0
SOLID
  5
E06
330
E03
100
AcDbEntity
  8
寸法
  6
Continuous
 62
     1
440
 16777216
100
AcDbTrace
 10
2049.660798399788
 20
353.8760805220413
 30
0.0
 11
2049.660798399788
 21
352.8760805220413
 31
0.0
 12
2046.660798399788
 22
353.3760805220413
 32
0.0
 13
2046.660798399788
 23
353.3760805220413
 33
0.0
  0
SOLID
  5
E07
330
E03
100
AcDbEntity
  8
寸法
  6
Continuous
 62
     1
440
 16777216
100
AcDbTrace
 10
2140.460798399788
 20
353.8760805220413
 30
0.0
 11
2140.460798399788
 21
352.8760805220413
 31
0.0
 12
2143.460798399788
 22
353.3760805220413
 32
0.0
 13
2143.460798399788
 23
353.3760805220413
 33
0.0
  0
MTEXT
  5
E08
330
E03
100
AcDbEntity
  8
寸法
  6
Continuous
 62
     1
440
 16777216
100
AcDbMText
 10
2095.060798399788
 20
356.3760805220413
 30
0.0
 40
5.0
 41
0.0
 46
0.0
 71
     5
 72
     1
  1
\A1;97
  7
WMF-ＭＳ Ｐ明朝0
 73
     1
 44
1.0
  0
POINT
  5
E09
330
E03
100
AcDbEntity
  8
Defpoints
  6
Continuous
 62
     0
440
 16777216
100
AcDbPoint
 10
2046.660798399788
 20
353.3760805220413
 30
0.0
  0
POINT
  5
E0A
330
E03
100
AcDbEntity
  8
Defpoints
  6
Continuous
 62
     0
440
 16777216
100
AcDbPoint
 10
2143.460798399788
 20
353.3760805220413
 30
0.0
  0
POINT
  5
E0B
330
E03
100
AcDbEntity
  8
Defpoints
  6
Continuous
 62
     0
440
 16777216
100
AcDbPoint
 10
2143.460798399788
 20
353.3760805220413
 30
0.0
  0
ENDBLK
  5
E0C
330
E03
100
AcDbEntity
  8
0
100
AcDbBlockEnd
  0
BLOCK
  5
E0E
330
E0D
100
AcDbEntity
  8
0
100
AcDbBlockBegin
  2
*D19
 70
     1
 10
0.0
 20
0.0
 30
0.0
  3
*D19
  1

  0
LINE
  5
E0F
330
E0D
100
AcDbEntity
  8
寸法
  6
Continuous
 62
     1
440
 16777216
370
    -2
100
AcDbLine
 10
1942.460798399787
 20
283.8308960252489
 30
0.0
 11
1942.460798399787
 21
363.9731060204031
 31
0.0
  0
LINE
  5
E10
330
E0D
100
AcDbEntity
  8
寸法
  6
Continuous
 62
     1
440
 16777216
370
    -2
100
AcDbLine
 10
2183.460798399788
 20
287.0308960252489
 30
0.0
 11
2183.460798399788
 21
363.9731060204031
 31
0.0
  0
LINE
  5
E11
330
E0D
100
AcDbEntity
  8
寸法
  6
Continuous
 62
     1
440
 16777216
370
    -2
100
AcDbLine
 10
1945.460798399787
 20
363.4731060204031
 30
0.0
 11
2180.460798399788
 21
363.4731060204031
 31
0.0
  0
SOLID
  5
E12
330
E0D
100
AcDbEntity
  8
寸法
  6
Continuous
 62
     1
440
 16777216
100
AcDbTrace
 10
1945.460798399787
 20
363.9731060204031
 30
0.0
 11
1945.460798399787
 21
362.9731060204031
 31
0.0
 12
1942.460798399787
 22
363.4731060204031
 32
0.0
 13
1942.460798399787
 23
363.4731060204031
 33
0.0
  0
SOLID
  5
E13
330
E0D
100
AcDbEntity
  8
寸法
  6
Continuous
 62
     1
440
 16777216
100
AcDbTrace
 10
2180.460798399788
 20
363.9731060204031
 30
0.0
 11
2180.460798399788
 21
362.9731060204031
 31
0.0
 12
2183.460798399788
 22
363.4731060204031
 32
0.0
 13
2183.460798399788
 23
363.4731060204031
 33
0.0
  0
MTEXT
  5
E14
330
E0D
100
AcDbEntity
  8
寸法
  6
Continuous
 62
     1
440
 16777216
100
AcDbMText
 10
2062.960798399787
 20
366.4731060204031
 30
0.0
 40
5.0
 41
0.0
 46
0.0
 71
     5
 72
     1
  1
\A1;241
  7
WMF-ＭＳ Ｐ明朝0
 73
     1
 44
1.0
  0
POINT
  5
E15
330
E0D
100
AcDbEntity
  8
Defpoints
  6
Continuous
 62
     0
440
 16777216
100
AcDbPoint
 10
1942.460798399787
 20
283.3308960252489
 30
0.0
  0
POINT
  5
E16
330
E0D
100
AcDbEntity
  8
Defpoints
  6
Continuous
 62
     0
440
 16777216
100
AcDbPoint
 10
2183.460798399788
 20
286.5308960252489
 30
0.0
  0
POINT
  5
E17
330
E0D
100
AcDbEntity
  8
Defpoints
  6
Continuous
 62
     0
440
 16777216
100
AcDbPoint
 10
2183.460798399788
 20
363.4731060204031
 30
0.0
  0
ENDBLK
  5
E18
330
E0D
100
AcDbEntity
  8
0
100
AcDbBlockEnd
  0
BLOCK
  5
E1A
330
E19
100
AcDbEntity
  8
0
100
AcDbBlockBegin
  2
*D20
 70
     1
 10
0.0
 20
0.0
 30
0.0
  3
*D20
  1

  0
LINE
  5
E1B
330
E19
100
AcDbEntity
  8
寸法
  6
Continuous
 62
     1
440
 16777216
370
    -2
100
AcDbLine
 10
2108.153023399793
 20
285.530896025249
 30
0.0
 11
2108.153023399793
 21
235.1308960252492
 31
0.0
  0
SOLID
  5
E1C
330
E19
100
AcDbEntity
  8
寸法
  6
Continuous
 62
     1
440
 16777216
100
AcDbTrace
 10
2107.653023399793
 20
285.530896025249
 30
0.0
 11
2108.653023399793
 21
285.530896025249
 31
0.0
 12
2108.153023399793
 22
288.5308960252491
 32
0.0
 13
2108.153023399793
 23
288.5308960252491
 33
0.0
  0
SOLID
  5
E1D
330
E19
100
AcDbEntity
  8
寸法
  6
Continuous
 62
     1
440
 16777216
100
AcDbTrace
 10
2107.653023399793
 20
235.1308960252492
 30
0.0
 11
2108.653023399793
 21
235.1308960252492
 31
0.0
 12
2108.153023399793
 22
232.1308960252492
 32
0.0
 13
2108.153023399793
 23
232.1308960252492
 33
0.0
  0
MTEXT
  5
E1E
330
E19
100
AcDbEntity
  8
寸法
  6
Continuous
 62
     1
440
 16777216
100
AcDbMText
 10
2104.703585197545
 20
260.3308960252485
 30
0.0
 40
5.0
 41
0.0
 46
0.0
 71
     5
 72
     1
  1
\A1;φ58
  7
WMF-ＭＳ Ｐ明朝0
 11
0.0000000000000001
 21
1.0
 31
0.0
 73
     1
 44
1.0
  0
POINT
  5
E1F
330
E19
100
AcDbEntity
  8
Defpoints
  6
Continuous
 62
     0
440
 16777216
100
AcDbPoint
 10
2108.153023399789
 20
288.5308960252491
 30
0.0
  0
POINT
  5
E20
330
E19
100
AcDbEntity
  8
Defpoints
  6
Continuous
 62
     0
440
 16777216
100
AcDbPoint
 10
2108.153023399789
 20
232.1308960252492
 30
0.0
  0
POINT
  5
E21
330
E19
100
AcDbEntity
  8
Defpoints
  6
Continuous
 62
     0
440
 16777216
100
AcDbPoint
 10
2108.153023399793
 20
232.1308960252492
 30
0.0
  0
ENDBLK
  5
E22
330
E19
100
AcDbEntity
  8
0
100
AcDbBlockEnd
  0
BLOCK
  5
E24
330
E23
100
AcDbEntity
  8
0
100
AcDbBlockBegin
  2
*D21
 70
     1
 10
0.0
 20
0.0
 30
0.0
  3
*D21
  1

  0
LINE
  5
E25
330
E23
100
AcDbEntity
  8
寸法
  6
Continuous
 62
     1
440
 16777216
370
    -2
100
AcDbLine
 10
1896.435798399788
 20
309.301896025249
 30
0.0
 11
1926.203116758431
 21
309.3018960252492
 31
0.0
  0
LINE
  5
E26
330
E23
100
AcDbEntity
  8
寸法
  6
Continuous
 62
     1
440
 16777216
370
    -2
100
AcDbLine
 10
1884.435798399788
 20
231.2958740689976
 30
0.0
 11
1926.203116758431
 21
231.2958740689976
 31
0.0
  0
LINE
  5
E27
330
E23
100
AcDbEntity
  8
寸法
  6
Continuous
 62
     1
440
 16777216
370
    -2
100
AcDbLine
 10
1925.703116758431
 20
306.301896025249
 30
0.0
 11
1925.703116758431
 21
234.2958740689976
 31
0.0
  0
SOLID
  5
E28
330
E23
100
AcDbEntity
  8
寸法
  6
Continuous
 62
     1
440
 16777216
100
AcDbTrace
 10
1925.203116758431
 20
306.301896025249
 30
0.0
 11
1926.203116758431
 21
306.301896025249
 31
0.0
 12
1925.703116758431
 22
309.3018960252492
 32
0.0
 13
1925.703116758431
 23
309.3018960252492
 33
0.0
  0
SOLID
  5
E29
330
E23
100
AcDbEntity
  8
寸法
  6
Continuous
 62
     1
440
 16777216
100
AcDbTrace
 10
1925.203116758431
 20
234.2958740689976
 30
0.0
 11
1926.203116758431
 21
234.2958740689976
 31
0.0
 12
1925.703116758431
 22
231.2958740689976
 32
0.0
 13
1925.703116758431
 23
231.2958740689976
 33
0.0
  0
MTEXT
  5
E2A
330
E23
100
AcDbEntity
  8
寸法
  6
Continuous
 62
     1
440
 16777216
100
AcDbMText
 10
1922.703116758431
 20
270.2988850471227
 30
0.0
 40
5.0
 41
0.0
 46
0.0
 71
     5
 72
     1
  1
\A1;78
  7
WMF-ＭＳ Ｐ明朝0
 11
0.0000000000000001
 21
1.0
 31
0.0
 73
     1
 44
1.0
  0
POINT
  5
E2B
330
E23
100
AcDbEntity
  8
Defpoints
  6
Continuous
 62
     0
440
 16777216
100
AcDbPoint
 10
1895.935798399788
 20
309.301896025249
 30
0.0
  0
POINT
  5
E2C
330
E23
100
AcDbEntity
  8
Defpoints
  6
Continuous
 62
     0
440
 16777216
100
AcDbPoint
 10
1883.935798399789
 20
231.2958740689976
 30
0.0
  0
POINT
  5
E2D
330
E23
100
AcDbEntity
  8
Defpoints
  6
Continuous
 62
     0
440
 16777216
100
AcDbPoint
 10
1925.703116758431
 20
231.2958740689976
 30
0.0
  0
ENDBLK
  5
E2E
330
E23
100
AcDbEntity
  8
0
100
AcDbBlockEnd
  0
BLOCK
  5
1133
330
1132
100
AcDbEntity
  8
0
100
AcDbBlockBegin
  2
*D23
 70
     1
 10
0.0
 20
0.0
 30
0.0
  3
*D23
  1

  0
LINE
  5
1186
330
1132
100
AcDbEntity
  8
寸法
  6
Continuous
 62
     1
440
 16777216
370
    -2
100
AcDbLine
 10
2211.909386852411
 20
133.6733226793772
 30
0.0
 11
2212.026886852417
 21
133.6733226793772
 31
0.0
  0
LINE
  5
1187
330
1132
100
AcDbEntity
  8
寸法
  6
Continuous
 62
     1
440
 16777216
370
    -2
100
AcDbLine
 10
2211.909386852411
 20
83.67332267937726
 30
0.0
 11
2212.026886852417
 21
83.67332267937726
 31
0.0
  0
LINE
  5
1188
330
1132
100
AcDbEntity
  8
寸法
  6
Continuous
 62
     1
440
 16777216
370
    -2
100
AcDbLine
 10
2211.846886852416
 20
128.6733226793772
 30
0.0
 11
2211.846886852416
 21
88.67332267937726
 31
0.0
  0
SOLID
  5
1189
330
1132
100
AcDbEntity
  8
寸法
  6
Continuous
 62
     1
440
 16777216
100
AcDbTrace
 10
2211.013553519083
 20
128.6733226793772
 30
0.0
 11
2212.68022018575
 21
128.6733226793772
 31
0.0
 12
2211.846886852416
 22
133.6733226793772
 32
0.0
 13
2211.846886852416
 23
133.6733226793772
 33
0.0
  0
SOLID
  5
118A
330
1132
100
AcDbEntity
  8
寸法
  6
Continuous
 62
     1
440
 16777216
100
AcDbTrace
 10
2211.013553519083
 20
88.67332267937726
 30
0.0
 11
2212.68022018575
 21
88.67332267937726
 31
0.0
 12
2211.846886852416
 22
83.67332267937726
 32
0.0
 13
2211.846886852416
 23
83.67332267937726
 33
0.0
  0
MTEXT
  5
118B
330
1132
100
AcDbEntity
  8
寸法
  6
Continuous
 62
     1
440
 16777216
100
AcDbMText
 10
2204.948010447921
 20
108.6733226793766
 30
0.0
 40
10.0
 41
0.0
 46
0.0
 71
     5
 72
     1
  1
\A1;φ50
  7
WMF-ＭＳ Ｐ明朝0
 11
0.0000000000000001
 21
1.0
 31
0.0
 73
     1
 44
1.0
  0
POINT
  5
118C
330
1132
100
AcDbEntity
  8
Defpoints
  6
Continuous
 62
     0
440
 16777216
100
AcDbPoint
 10
2211.846886852411
 20
133.6733226793772
 30
0.0
  0
POINT
  5
118D
330
1132
100
AcDbEntity
  8
Defpoints
  6
Continuous
 62
     0
440
 16777216
100
AcDbPoint
 10
2211.846886852411
 20
83.67332267937726
 30
0.0
  0
POINT
  5
118E
330
1132
100
AcDbEntity
  8
Defpoints
  6
Continuous
 62
     0
440
 16777216
100
AcDbPoint
 10
2211.846886852416
 20
83.67332267937726
 30
0.0
  0
ENDBLK
  5
1134
330
1132
100
AcDbEntity
  8
0
100
AcDbBlockEnd
  0
BLOCK
  5
113F
330
113E
100
AcDbEntity
  8
0
100
AcDbBlockBegin
  2
*D24
 70
     1
 10
0.0
 20
0.0
 30
0.0
  3
*D24
  1

  0
LINE
  5
118F
330
113E
100
AcDbEntity
  8
寸法
  6
Continuous
 62
     1
440
 16777216
370
    -2
100
AcDbLine
 10
2194.518141852409
 20
176.4383806793773
 30
0.0
 11
2194.518141852409
 21
201.8985071761697
 31
0.0
  0
LINE
  5
1190
330
113E
100
AcDbEntity
  8
寸法
  6
Continuous
 62
     1
440
 16777216
370
    -2
100
AcDbLine
 10
2241.51814185241
 20
201.7810071761696
 30
0.0
 11
2241.51814185241
 21
201.8985071761697
 31
0.0
  0
LINE
  5
1191
330
113E
100
AcDbEntity
  8
寸法
  6
Continuous
 62
     1
440
 16777216
370
    -2
100
AcDbLine
 10
2199.518141852409
 20
201.7185071761697
 30
0.0
 11
2236.51814185241
 21
201.7185071761697
 31
0.0
  0
SOLID
  5
1192
330
113E
100
AcDbEntity
  8
寸法
  6
Continuous
 62
     1
440
 16777216
100
AcDbTrace
 10
2199.518141852409
 20
202.551840509503
 30
0.0
 11
2199.518141852409
 21
200.8851738428363
 31
0.0
 12
2194.518141852409
 22
201.7185071761697
 32
0.0
 13
2194.518141852409
 23
201.7185071761697
 33
0.0
  0
SOLID
  5
1193
330
113E
100
AcDbEntity
  8
寸法
  6
Continuous
 62
     1
440
 16777216
100
AcDbTrace
 10
2236.51814185241
 20
202.551840509503
 30
0.0
 11
2236.51814185241
 21
200.8851738428363
 31
0.0
 12
2241.51814185241
 22
201.7185071761697
 32
0.0
 13
2241.51814185241
 23
201.7185071761697
 33
0.0
  0
MTEXT
  5
1194
330
113E
100
AcDbEntity
  8
寸法
  6
Continuous
 62
     1
440
 16777216
100
AcDbMText
 10
2218.018141852409
 20
207.7185071761697
 30
0.0
 40
10.0
 41
0.0
 46
0.0
 71
     5
 72
     1
  1
\A1;47
  7
WMF-ＭＳ Ｐ明朝0
 73
     1
 44
1.0
  0
POINT
  5
1195
330
113E
100
AcDbEntity
  8
Defpoints
  6
Continuous
 62
     0
440
 16777216
100
AcDbPoint
 10
2194.518141852409
 20
176.3758806793773
 30
0.0
  0
POINT
  5
1196
330
113E
100
AcDbEntity
  8
Defpoints
  6
Continuous
 62
     0
440
 16777216
100
AcDbPoint
 10
2241.51814185241
 20
201.7185071761697
 30
0.0
  0
POINT
  5
1197
330
113E
100
AcDbEntity
  8
Defpoints
  6
Continuous
 62
     0
440
 16777216
100
AcDbPoint
 10
2241.51814185241
 20
201.7185071761697
 30
0.0
  0
ENDBLK
  5
1140
330
113E
100
AcDbEntity
  8
0
100
AcDbBlockEnd
  0
BLOCK
  5
114B
330
114A
100
AcDbEntity
  8
0
100
AcDbBlockBegin
  2
*D25
 70
     1
 10
0.0
 20
0.0
 30
0.0
  3
*D25
  1

  0
LINE
  5
1198
330
114A
100
AcDbEntity
  8
寸法
  6
Continuous
 62
     1
440
 16777216
370
    -2
100
AcDbLine
 10
2241.51814185241
 20
134.9358226793772
 30
0.0
 11
2241.51814185241
 21
201.8985071761697
 31
0.0
  0
LINE
  5
1199
330
114A
100
AcDbEntity
  8
寸法
  6
Continuous
 62
     1
440
 16777216
370
    -2
100
AcDbLine
 10
2298.71814185241
 20
164.5293206793772
 30
0.0
 11
2298.71814185241
 21
201.8985071761697
 31
0.0
  0
LINE
  5
119A
330
114A
100
AcDbEntity
  8
寸法
  6
Continuous
 62
     1
440
 16777216
370
    -2
100
AcDbLine
 10
2246.51814185241
 20
201.7185071761697
 30
0.0
 11
2293.71814185241
 21
201.7185071761697
 31
0.0
  0
SOLID
  5
119B
330
114A
100
AcDbEntity
  8
寸法
  6
Continuous
 62
     1
440
 16777216
100
AcDbTrace
 10
2246.51814185241
 20
202.551840509503
 30
0.0
 11
2246.51814185241
 21
200.8851738428363
 31
0.0
 12
2241.51814185241
 22
201.7185071761697
 32
0.0
 13
2241.51814185241
 23
201.7185071761697
 33
0.0
  0
SOLID
  5
119C
330
114A
100
AcDbEntity
  8
寸法
  6
Continuous
 62
     1
440
 16777216
100
AcDbTrace
 10
2293.71814185241
 20
202.551840509503
 30
0.0
 11
2293.71814185241
 21
200.8851738428363
 31
0.0
 12
2298.71814185241
 22
201.7185071761697
 32
0.0
 13
2298.71814185241
 23
201.7185071761697
 33
0.0
  0
MTEXT
  5
119D
330
114A
100
AcDbEntity
  8
寸法
  6
Continuous
 62
     1
440
 16777216
100
AcDbMText
 10
2270.11814185241
 20
207.7185071761697
 30
0.0
 40
10.0
 41
0.0
 46
0.0
 71
     5
 72
     1
  1
\A1;57
  7
WMF-ＭＳ Ｐ明朝0
 73
     1
 44
1.0
  0
POINT
  5
119E
330
114A
100
AcDbEntity
  8
Defpoints
  6
Continuous
 62
     0
440
 16777216
100
AcDbPoint
 10
2241.51814185241
 20
134.8733226793772
 30
0.0
  0
POINT
  5
119F
330
114A
100
AcDbEntity
  8
Defpoints
  6
Continuous
 62
     0
440
 16777216
100
AcDbPoint
 10
2298.71814185241
 20
164.4668206793772
 30
0.0
  0
POINT
  5
11A0
330
114A
100
AcDbEntity
  8
Defpoints
  6
Continuous
 62
     0
440
 16777216
100
AcDbPoint
 10
2298.71814185241
 20
201.7185071761697
 30
0.0
  0
ENDBLK
  5
114C
330
114A
100
AcDbEntity
  8
0
100
AcDbBlockEnd
  0
BLOCK
  5
1157
330
1156
100
AcDbEntity
  8
0
100
AcDbBlockBegin
  2
*D26
 70
     1
 10
0.0
 20
0.0
 30
0.0
  3
*D26
  1

  0
LINE
  5
11A1
330
1156
100
AcDbEntity
  8
寸法
  6
Continuous
 62
     1
440
 16777216
370
    -2
100
AcDbLine
 10
2298.71814185241
 20
201.7810071761696
 30
0.0
 11
2298.71814185241
 21
201.8985071761697
 31
0.0
  0
LINE
  5
11A2
330
1156
100
AcDbEntity
  8
寸法
  6
Continuous
 62
     1
440
 16777216
370
    -2
100
AcDbLine
 10
2395.51814185241
 20
201.7810071761696
 30
0.0
 11
2395.51814185241
 21
201.8985071761697
 31
0.0
  0
LINE
  5
11A3
330
1156
100
AcDbEntity
  8
寸法
  6
Continuous
 62
     1
440
 16777216
370
    -2
100
AcDbLine
 10
2303.71814185241
 20
201.7185071761697
 30
0.0
 11
2390.51814185241
 21
201.7185071761697
 31
0.0
  0
SOLID
  5
11A4
330
1156
100
AcDbEntity
  8
寸法
  6
Continuous
 62
     1
440
 16777216
100
AcDbTrace
 10
2303.71814185241
 20
202.551840509503
 30
0.0
 11
2303.71814185241
 21
200.8851738428363
 31
0.0
 12
2298.71814185241
 22
201.7185071761697
 32
0.0
 13
2298.71814185241
 23
201.7185071761697
 33
0.0
  0
SOLID
  5
11A5
330
1156
100
AcDbEntity
  8
寸法
  6
Continuous
 62
     1
440
 16777216
100
AcDbTrace
 10
2390.51814185241
 20
202.551840509503
 30
0.0
 11
2390.51814185241
 21
200.8851738428363
 31
0.0
 12
2395.51814185241
 22
201.7185071761697
 32
0.0
 13
2395.51814185241
 23
201.7185071761697
 33
0.0
  0
MTEXT
  5
11A6
330
1156
100
AcDbEntity
  8
寸法
  6
Continuous
 62
     1
440
 16777216
100
AcDbMText
 10
2347.11814185241
 20
207.7185071761697
 30
0.0
 40
10.0
 41
0.0
 46
0.0
 71
     5
 72
     1
  1
\A1;97
  7
WMF-ＭＳ Ｐ明朝0
 73
     1
 44
1.0
  0
POINT
  5
11A7
330
1156
100
AcDbEntity
  8
Defpoints
  6
Continuous
 62
     0
440
 16777216
100
AcDbPoint
 10
2298.71814185241
 20
201.7185071761697
 30
0.0
  0
POINT
  5
11A8
330
1156
100
AcDbEntity
  8
Defpoints
  6
Continuous
 62
     0
440
 16777216
100
AcDbPoint
 10
2395.51814185241
 20
201.7185071761697
 30
0.0
  0
POINT
  5
11A9
330
1156
100
AcDbEntity
  8
Defpoints
  6
Continuous
 62
     0
440
 16777216
100
AcDbPoint
 10
2395.51814185241
 20
201.7185071761697
 30
0.0
  0
ENDBLK
  5
1158
330
1156
100
AcDbEntity
  8
0
100
AcDbBlockEnd
  0
BLOCK
  5
1163
330
1162
100
AcDbEntity
  8
0
100
AcDbBlockBegin
  2
*D27
 70
     1
 10
0.0
 20
0.0
 30
0.0
  3
*D27
  1

  0
LINE
  5
11AA
330
1162
100
AcDbEntity
  8
寸法
  6
Continuous
 62
     1
440
 16777216
370
    -2
100
AcDbLine
 10
2194.518141852409
 20
131.7358226793772
 30
0.0
 11
2194.518141852409
 21
211.9955326745315
 31
0.0
  0
LINE
  5
11AB
330
1162
100
AcDbEntity
  8
寸法
  6
Continuous
 62
     1
440
 16777216
370
    -2
100
AcDbLine
 10
2435.518141852411
 20
134.9358226793772
 30
0.0
 11
2435.518141852411
 21
211.9955326745315
 31
0.0
  0
LINE
  5
11AC
330
1162
100
AcDbEntity
  8
寸法
  6
Continuous
 62
     1
440
 16777216
370
    -2
100
AcDbLine
 10
2199.518141852409
 20
211.8155326745315
 30
0.0
 11
2430.51814185241
 21
211.8155326745315
 31
0.0
  0
SOLID
  5
11AD
330
1162
100
AcDbEntity
  8
寸法
  6
Continuous
 62
     1
440
 16777216
100
AcDbTrace
 10
2199.518141852409
 20
212.6488660078648
 30
0.0
 11
2199.518141852409
 21
210.9821993411981
 31
0.0
 12
2194.518141852409
 22
211.8155326745315
 32
0.0
 13
2194.518141852409
 23
211.8155326745315
 33
0.0
  0
SOLID
  5
11AE
330
1162
100
AcDbEntity
  8
寸法
  6
Continuous
 62
     1
440
 16777216
100
AcDbTrace
 10
2430.51814185241
 20
212.6488660078648
 30
0.0
 11
2430.51814185241
 21
210.9821993411981
 31
0.0
 12
2435.518141852411
 22
211.8155326745315
 32
0.0
 13
2435.518141852411
 23
211.8155326745315
 33
0.0
  0
MTEXT
  5
11AF
330
1162
100
AcDbEntity
  8
寸法
  6
Continuous
 62
     1
440
 16777216
100
AcDbMText
 10
2315.01814185241
 20
217.8155326745315
 30
0.0
 40
10.0
 41
0.0
 46
0.0
 71
     5
 72
     1
  1
\A1;241
  7
WMF-ＭＳ Ｐ明朝0
 73
     1
 44
1.0
  0
POINT
  5
11B0
330
1162
100
AcDbEntity
  8
Defpoints
  6
Continuous
 62
     0
440
 16777216
100
AcDbPoint
 10
2194.518141852409
 20
131.6733226793772
 30
0.0
  0
POINT
  5
11B1
330
1162
100
AcDbEntity
  8
Defpoints
  6
Continuous
 62
     0
440
 16777216
100
AcDbPoint
 10
2435.518141852411
 20
134.8733226793772
 30
0.0
  0
POINT
  5
11B2
330
1162
100
AcDbEntity
  8
Defpoints
  6
Continuous
 62
     0
440
 16777216
100
AcDbPoint
 10
2435.518141852411
 20
211.8155326745315
 30
0.0
  0
ENDBLK
  5
1164
330
1162
100
AcDbEntity
  8
0
100
AcDbBlockEnd
  0
BLOCK
  5
116F
330
116E
100
AcDbEntity
  8
0
100
AcDbBlockBegin
  2
*D28
 70
     1
 10
0.0
 20
0.0
 30
0.0
  3
*D28
  1

  0
LINE
  5
11B3
330
116E
100
AcDbEntity
  8
寸法
  6
Continuous
 62
     1
440
 16777216
370
    -2
100
AcDbLine
 10
2360.272866852411
 20
136.8733226793772
 30
0.0
 11
2360.390366852417
 21
136.8733226793772
 31
0.0
  0
LINE
  5
11B4
330
116E
100
AcDbEntity
  8
寸法
  6
Continuous
 62
     1
440
 16777216
370
    -2
100
AcDbLine
 10
2360.272866852411
 20
80.47332267937745
 30
0.0
 11
2360.390366852417
 21
80.47332267937745
 31
0.0
  0
LINE
  5
11B5
330
116E
100
AcDbEntity
  8
寸法
  6
Continuous
 62
     1
440
 16777216
370
    -2
100
AcDbLine
 10
2360.210366852417
 20
131.8733226793772
 30
0.0
 11
2360.210366852417
 21
85.47332267937745
 31
0.0
  0
SOLID
  5
11B6
330
116E
100
AcDbEntity
  8
寸法
  6
Continuous
 62
     1
440
 16777216
100
AcDbTrace
 10
2359.377033519083
 20
131.8733226793772
 30
0.0
 11
2361.04370018575
 21
131.8733226793772
 31
0.0
 12
2360.210366852417
 22
136.8733226793772
 32
0.0
 13
2360.210366852417
 23
136.8733226793772
 33
0.0
  0
SOLID
  5
11B7
330
116E
100
AcDbEntity
  8
寸法
  6
Continuous
 62
     1
440
 16777216
100
AcDbTrace
 10
2359.377033519083
 20
85.47332267937745
 30
0.0
 11
2361.04370018575
 21
85.47332267937745
 31
0.0
 12
2360.210366852417
 22
80.47332267937745
 32
0.0
 13
2360.210366852417
 23
80.47332267937745
 33
0.0
  0
MTEXT
  5
11B8
330
116E
100
AcDbEntity
  8
寸法
  6
Continuous
 62
     1
440
 16777216
100
AcDbMText
 10
2353.311490447921
 20
108.6733226793766
 30
0.0
 40
10.0
 41
0.0
 46
0.0
 71
     5
 72
     1
  1
\A1;φ58
  7
WMF-ＭＳ Ｐ明朝0
 11
0.0000000000000001
 21
1.0
 31
0.0
 73
     1
 44
1.0
  0
POINT
  5
11B9
330
116E
100
AcDbEntity
  8
Defpoints
  6
Continuous
 62
     0
440
 16777216
100
AcDbPoint
 10
2360.210366852411
 20
136.8733226793772
 30
0.0
  0
POINT
  5
11BA
330
116E
100
AcDbEntity
  8
Defpoints
  6
Continuous
 62
     0
440
 16777216
100
AcDbPoint
 10
2360.210366852411
 20
80.47332267937745
 30
0.0
  0
POINT
  5
11BB
330
116E
100
AcDbEntity
  8
Defpoints
  6
Continuous
 62
     0
440
 16777216
100
AcDbPoint
 10
2360.210366852417
 20
80.47332267937745
 30
0.0
  0
ENDBLK
  5
1170
330
116E
100
AcDbEntity
  8
0
100
AcDbBlockEnd
  0
BLOCK
  5
117B
330
117A
100
AcDbEntity
  8
0
100
AcDbBlockBegin
  2
*D29
 70
     1
 10
0.0
 20
0.0
 30
0.0
  3
*D29
  1

  0
LINE
  5
11BC
330
117A
100
AcDbEntity
  8
寸法
  6
Continuous
 62
     1
440
 16777216
370
    -2
100
AcDbLine
 10
2148.05564185241
 20
157.6443226793772
 30
0.0
 11
2177.940460211055
 21
157.6443226793772
 31
0.0
  0
LINE
  5
11BD
330
117A
100
AcDbEntity
  8
寸法
  6
Continuous
 62
     1
440
 16777216
370
    -2
100
AcDbLine
 10
2136.055641852411
 20
79.63830072312586
 30
0.0
 11
2177.940460211055
 21
79.63830072312588
 31
0.0
  0
LINE
  5
11BE
330
117A
100
AcDbEntity
  8
寸法
  6
Continuous
 62
     1
440
 16777216
370
    -2
100
AcDbLine
 10
2177.760460211055
 20
152.6443226793772
 30
0.0
 11
2177.760460211055
 21
84.63830072312587
 31
0.0
  0
SOLID
  5
11BF
330
117A
100
AcDbEntity
  8
寸法
  6
Continuous
 62
     1
440
 16777216
100
AcDbTrace
 10
2176.927126877721
 20
152.6443226793772
 30
0.0
 11
2178.593793544388
 21
152.6443226793772
 31
0.0
 12
2177.760460211055
 22
157.6443226793772
 32
0.0
 13
2177.760460211055
 23
157.6443226793772
 33
0.0
  0
SOLID
  5
11C0
330
117A
100
AcDbEntity
  8
寸法
  6
Continuous
 62
     1
440
 16777216
100
AcDbTrace
 10
2176.927126877721
 20
84.63830072312587
 30
0.0
 11
2178.593793544388
 21
84.63830072312587
 31
0.0
 12
2177.760460211055
 22
79.63830072312588
 32
0.0
 13
2177.760460211055
 23
79.63830072312588
 33
0.0
  0
MTEXT
  5
11C1
330
117A
100
AcDbEntity
  8
寸法
  6
Continuous
 62
     1
440
 16777216
100
AcDbMText
 10
2171.760460211054
 20
118.6413117012509
 30
0.0
 40
10.0
 41
0.0
 46
0.0
 71
     5
 72
     1
  1
\A1;78
  7
WMF-ＭＳ Ｐ明朝0
 11
0.0000000000000001
 21
1.0
 31
0.0
 73
     1
 44
1.0
  0
POINT
  5
11C2
330
117A
100
AcDbEntity
  8
Defpoints
  6
Continuous
 62
     0
440
 16777216
100
AcDbPoint
 10
2147.99314185241
 20
157.6443226793772
 30
0.0
  0
POINT
  5
11C3
330
117A
100
AcDbEntity
  8
Defpoints
  6
Continuous
 62
     0
440
 16777216
100
AcDbPoint
 10
2135.993141852411
 20
79.63830072312586
 30
0.0
  0
POINT
  5
11C4
330
117A
100
AcDbEntity
  8
Defpoints
  6
Continuous
 62
     0
440
 16777216
100
AcDbPoint
 10
2177.760460211055
 20
79.63830072312588
 30
0.0
  0
ENDBLK
  5
117C
330
117A
100
AcDbEntity
  8
0
100
AcDbBlockEnd
  0
BLOCK
  5
1955
330
1954
100
AcDbEntity
  8
0
100
AcDbBlockBegin
  2
*U30
 70
     1
 10
0.0
 20
0.0
 30
0.0
  3
*U30
  1

  0
LINE
  5
195A
330
1954
100
AcDbEntity
  8
005　中心線
  6
Continuous
 62
     0
440
 16777216
100
AcDbLine
 10
-4.29910019655276
 20
0.0
 30
0.0
 11
4.29910019655276
 21
0.0
 31
0.0
  0
LINE
  5
195B
330
1954
100
AcDbEntity
  8
005　中心線
  6
Continuous
 62
     0
440
 16777216
100
AcDbLine
 10
0.0
 20
-4.29910019655276
 30
0.0
 11
0.0
 21
4.29910019655276
 31
0.0
  0
LINE
  5
195C
330
1954
100
AcDbEntity
  8
005　中心線
  6
CENTER2
 62
     0
440
 16777216
100
AcDbLine
 10
-45.1110019655276
 20
0.0
 30
0.0
 11
-8.598200393105521
 21
0.0
 31
0.0
  0
LINE
  5
195D
330
1954
100
AcDbEntity
  8
005　中心線
  6
CENTER2
 62
     0
440
 16777216
100
AcDbLine
 10
8.598200393105521
 20
0.0
 30
0.0
 11
45.11100196552773
 21
0.0
 31
0.0
  0
LINE
  5
195E
330
1954
100
AcDbEntity
  8
005　中心線
  6
CENTER2
 62
     0
440
 16777216
100
AcDbLine
 10
0.0
 20
-45.1110019655276
 30
0.0
 11
0.0
 21
-8.598200393105521
 31
0.0
  0
LINE
  5
195F
330
1954
100
AcDbEntity
  8
005　中心線
  6
CENTER2
 62
     0
440
 16777216
100
AcDbLine
 10
0.0
 20
8.598200393105521
 30
0.0
 11
0.0
 21
70.12
 31
0.0
  0
ENDBLK
  5
1956
330
1954
100
AcDbEntity
  8
0
100
AcDbBlockEnd
  0
BLOCK
  5
1967
330
1966
100
AcDbEntity
  8
0
100
AcDbBlockBegin
  2
*U31
 70
     1
 10
0.0
 20
0.0
 30
0.0
  3
*U31
  1

  0
LINE
  5
196B
330
1966
100
AcDbEntity
  8
005　中心線
  6
CENTER2
 62
     0
440
 16777216
100
AcDbLine
 10
-238.8200004999998
 20
0.0
 30
0.0
 11
147.4200014999999
 21
0.0
 31
0.0
  0
ENDBLK
  5
1968
330
1966
100
AcDbEntity
  8
0
100
AcDbBlockEnd
  0
BLOCK
  5
1B37
330
1B36
100
AcDbEntity
  8
0
100
AcDbBlockBegin
  2
*D34
 70
     1
 10
0.0
 20
0.0
 30
0.0
  3
*D34
  1

  0
LINE
  5
1C6D
330
1B36
100
AcDbEntity
  8
寸法
  6
Continuous
 62
     1
440
 16777216
370
    -2
100
AcDbLine
 10
2717.662115397357
 20
277.9772777020587
 30
0.0
 11
2771.571518447942
 21
277.9772777020587
 31
0.0
  0
LINE
  5
1C6E
330
1B36
100
AcDbEntity
  8
寸法
  6
Continuous
 62
     1
440
 16777216
370
    -2
100
AcDbLine
 10
2748.653117362884
 20
209.9772777020587
 30
0.0
 11
2771.571518447942
 21
209.9772777020587
 31
0.0
  0
LINE
  5
1C6F
330
1B36
100
AcDbEntity
  8
寸法
  6
Continuous
 62
     1
440
 16777216
370
    -2
100
AcDbLine
 10
2771.391518447942
 20
272.9772777020587
 30
0.0
 11
2771.391518447942
 21
214.9772777020587
 31
0.0
  0
SOLID
  5
1C70
330
1B36
100
AcDbEntity
  8
寸法
  6
Continuous
 62
     1
440
 16777216
100
AcDbTrace
 10
2770.558185114609
 20
272.9772777020587
 30
0.0
 11
2772.224851781276
 21
272.9772777020587
 31
0.0
 12
2771.391518447942
 22
277.9772777020587
 32
0.0
 13
2771.391518447942
 23
277.9772777020587
 33
0.0
  0
SOLID
  5
1C71
330
1B36
100
AcDbEntity
  8
寸法
  6
Continuous
 62
     1
440
 16777216
100
AcDbTrace
 10
2770.558185114609
 20
214.9772777020587
 30
0.0
 11
2772.224851781276
 21
214.9772777020587
 31
0.0
 12
2771.391518447942
 22
209.9772777020587
 32
0.0
 13
2771.391518447942
 23
209.9772777020587
 33
0.0
  0
MTEXT
  5
1C72
330
1B36
100
AcDbEntity
  8
寸法
  6
Continuous
 62
     1
440
 16777216
100
AcDbMText
 10
2765.391518447942
 20
243.9772777020579
 30
0.0
 40
10.0
 41
0.0
 46
0.0
 71
     5
 72
     1
  1
\A1;68
  7
WMF-ＭＳ Ｐ明朝0
 11
0.0000000000000001
 21
1.0
 31
0.0
 73
     1
 44
1.0
  0
POINT
  5
1C73
330
1B36
100
AcDbEntity
  8
Defpoints
  6
Continuous
 62
     0
440
 16777216
100
AcDbPoint
 10
2717.599615397356
 20
277.9772777020587
 30
0.0
  0
POINT
  5
1C74
330
1B36
100
AcDbEntity
  8
Defpoints
  6
Continuous
 62
     0
440
 16777216
100
AcDbPoint
 10
2748.590617362884
 20
209.9772777020587
 30
0.0
  0
POINT
  5
1C75
330
1B36
100
AcDbEntity
  8
Defpoints
  6
Continuous
 62
     0
440
 16777216
100
AcDbPoint
 10
2771.391518447942
 20
209.9772777020587
 30
0.0
  0
ENDBLK
  5
1B38
330
1B36
100
AcDbEntity
  8
0
100
AcDbBlockEnd
  0
ENDSEC
  0
SECTION
  2
ENTITIES
  0
INSERT
  5
441
330
1E
100
AcDbEntity
  8
ﾚｲﾔ1
100
AcDbBlockReference
  2
*U0
 10
2959.113661397355
 20
209.3149517020586
 30
0.0
 41
2.0
 42
2.0
 43
2.0
  0
INSERT
  5
442
330
1E
100
AcDbEntity
  8
ﾚｲﾔ1
100
AcDbBlockReference
  2
*U1
 10
2959.113661397355
 20
209.3149517020586
 30
0.0
 41
2.0
 42
2.0
 43
2.0
  0
LINE
  5
443
330
1E
100
AcDbEntity
  8
ﾚｲﾔ1
  6
Continuous
100
AcDbLine
 10
2691.599615397356
 20
275.9772777020586
 30
0.0
 11
2719.599615397356
 21
275.9772777020586
 31
0.0
  0
INSERT
  5
445
330
1E
100
AcDbEntity
  8
ﾚｲﾔ1
100
AcDbBlockReference
  2
*U2
 10
2959.113661397355
 20
209.3149517020586
 30
0.0
 41
2.0
 42
2.0
 43
2.0
  0
LINE
  5
446
330
1E
100
AcDbEntity
  8
ﾚｲﾔ1
  6
Continuous
100
AcDbLine
 10
2867.267665397356
 20
247.9772777020586
 30
0.0
 11
2867.267665397356
 21
209.9772777020586
 31
0.0
  0
LINE
  5
447
330
1E
100
AcDbEntity
  8
ﾚｲﾔ1
  6
Continuous
100
AcDbLine
 10
2833.267665397356
 20
247.9772777020586
 30
0.0
 11
2833.267665397356
 21
209.9772777020586
 31
0.0
  0
LINE
  5
448
330
1E
100
AcDbEntity
  8
ﾚｲﾔ1
  6
Continuous
100
AcDbLine
 10
2869.267665397356
 20
232.1272777020586
 30
0.0
 11
2878.267665397356
 21
232.1272777020586
 31
0.0
  0
LINE
  5
449
330
1E
100
AcDbEntity
  8
ﾚｲﾔ1
  6
Continuous
100
AcDbLine
 10
2878.267665397356
 20
232.1272777020586
 30
0.0
 11
2878.267665397356
 21
249.4272777020585
 31
0.0
  0
LINE
  5
44A
330
1E
100
AcDbEntity
  8
ﾚｲﾔ1
  6
Continuous
100
AcDbLine
 10
2880.267665397356
 20
251.4272777020585
 30
0.0
 11
2880.267665397356
 21
209.9772777020586
 31
0.0
  0
LINE
  5
44B
330
1E
100
AcDbEntity
  8
ﾚｲﾔ1
  6
Continuous
100
AcDbLine
 10
2878.267665397356
 20
249.4272777020585
 30
0.0
 11
2926.267665397356
 21
249.4272777020585
 31
0.0
  0
LINE
  5
44C
330
1E
100
AcDbEntity
  8
ﾚｲﾔ1
  6
Continuous
100
AcDbLine
 10
2926.267665397356
 20
249.4272777020585
 30
0.0
 11
2924.267665397355
 21
251.4272777020585
 31
0.0
  0
LINE
  5
44D
330
1E
100
AcDbEntity
  8
ﾚｲﾔ1
  6
Continuous
100
AcDbLine
 10
2924.267665397355
 20
251.4272777020585
 30
0.0
 11
2924.267665397355
 21
209.9772777020586
 31
0.0
  0
LINE
  5
44E
330
1E
100
AcDbEntity
  8
ﾚｲﾔ1
  6
Continuous
100
AcDbLine
 10
2929.267665397356
 20
252.9772777020586
 30
0.0
 11
2929.267665397356
 21
209.9772777020586
 31
0.0
  0
LINE
  5
44F
330
1E
100
AcDbEntity
  8
ﾚｲﾔ1
  6
Continuous
100
AcDbLine
 10
2926.267665397356
 20
251.4272777020585
 30
0.0
 11
2926.267665397356
 21
209.9772777020586
 31
0.0
  0
LINE
  5
450
330
1E
100
AcDbEntity
  8
ﾚｲﾔ1
  6
Continuous
100
AcDbLine
 10
2833.267665397356
 20
171.9772777020585
 30
0.0
 11
2833.267665397356
 21
209.9772777020586
 31
0.0
  0
INSERT
  5
451
330
1E
100
AcDbEntity
  8
ﾚｲﾔ1
100
AcDbBlockReference
  2
*U3
 10
2959.113661397355
 20
209.3149517020586
 30
0.0
 41
2.0
 42
2.0
 43
2.0
  0
LINE
  5
452
330
1E
100
AcDbEntity
  8
ﾚｲﾔ1
  6
Continuous
100
AcDbLine
 10
2867.267665397356
 20
171.9772777020585
 30
0.0
 11
2867.267665397356
 21
209.9772777020586
 31
0.0
  0
LINE
  5
453
330
1E
100
AcDbEntity
  8
ﾚｲﾔ1
  6
Continuous
100
AcDbLine
 10
2869.267665397356
 20
187.8272777020585
 30
0.0
 11
2878.267665397356
 21
187.8272777020585
 31
0.0
  0
LINE
  5
454
330
1E
100
AcDbEntity
  8
ﾚｲﾔ1
  6
Continuous
100
AcDbLine
 10
2880.267665397356
 20
168.5272777020585
 30
0.0
 11
2880.267665397356
 21
209.9772777020586
 31
0.0
  0
LINE
  5
455
330
1E
100
AcDbEntity
  8
ﾚｲﾔ1
  6
Continuous
100
AcDbLine
 10
2878.267665397356
 20
170.5272777020585
 30
0.0
 11
2926.267665397356
 21
170.5272777020585
 31
0.0
  0
LINE
  5
456
330
1E
100
AcDbEntity
  8
ﾚｲﾔ1
  6
Continuous
100
AcDbLine
 10
2924.267665397355
 20
168.5272777020585
 30
0.0
 11
2924.267665397355
 21
209.9772777020586
 31
0.0
  0
LINE
  5
457
330
1E
100
AcDbEntity
  8
ﾚｲﾔ1
  6
Continuous
100
AcDbLine
 10
2926.267665397356
 20
251.4272777020585
 30
0.0
 11
2926.267665397356
 21
209.9772777020586
 31
0.0
  0
LINE
  5
458
330
1E
100
AcDbEntity
  8
ﾚｲﾔ1
  6
Continuous
100
AcDbLine
 10
2926.267665397356
 20
168.5272777020585
 30
0.0
 11
2926.267665397356
 21
209.9772777020586
 31
0.0
  0
LINE
  5
459
330
1E
100
AcDbEntity
  8
ﾚｲﾔ1
  6
Continuous
100
AcDbLine
 10
2929.267665397356
 20
166.9772777020585
 30
0.0
 11
2929.267665397356
 21
209.9772777020586
 31
0.0
  0
LINE
  5
45B
330
1E
100
AcDbEntity
  8
ﾚｲﾔ1
  6
Continuous
100
AcDbLine
 10
2878.267665397356
 20
249.4272777020585
 30
0.0
 11
2880.267665397356
 21
251.4272777020585
 31
0.0
  0
LINE
  5
45C
330
1E
100
AcDbEntity
  8
ﾚｲﾔ1
  6
Continuous
100
AcDbLine
 10
2880.267665397356
 20
251.4272777020585
 30
0.0
 11
2924.267665397355
 21
251.4272777020585
 31
0.0
  0
LINE
  5
45D
330
1E
100
AcDbEntity
  8
ﾚｲﾔ1
  6
Continuous
100
AcDbLine
 10
2926.267665397356
 20
251.4272777020585
 30
0.0
 11
2929.267665397356
 21
252.9772777020586
 31
0.0
  0
LINE
  5
45E
330
1E
100
AcDbEntity
  8
ﾚｲﾔ1
  6
Continuous
100
AcDbLine
 10
2878.267665397356
 20
232.1272777020586
 30
0.0
 11
2878.267665397356
 21
170.5272777020585
 31
0.0
  0
LINE
  5
45F
330
1E
100
AcDbEntity
  8
ﾚｲﾔ1
  6
Continuous
100
AcDbLine
 10
3211.267667397355
 20
252.9772777020586
 30
0.0
 11
3213.267667397356
 21
251.4272777020585
 31
0.0
  0
LINE
  5
460
330
1E
100
AcDbEntity
  8
ﾚｲﾔ1
  6
Continuous
100
AcDbLine
 10
3213.267667397356
 20
251.4272777020585
 30
0.0
 11
3213.267667397356
 21
209.9772777020586
 31
0.0
  0
LINE
  5
461
330
1E
100
AcDbEntity
  8
ﾚｲﾔ1
  6
Continuous
100
AcDbLine
 10
3211.267667397355
 20
252.9772777020586
 30
0.0
 11
3211.267667397355
 21
209.9772777020586
 31
0.0
  0
LINE
  5
462
330
1E
100
AcDbEntity
  8
ﾚｲﾔ1
  6
Continuous
100
AcDbLine
 10
2880.267665397356
 20
168.5272777020585
 30
0.0
 11
2924.267665397355
 21
168.5272777020585
 31
0.0
  0
LINE
  5
463
330
1E
100
AcDbEntity
  8
ﾚｲﾔ1
  6
Continuous
100
AcDbLine
 10
2878.267665397356
 20
170.5272777020585
 30
0.0
 11
2880.267665397356
 21
168.5272777020585
 31
0.0
  0
LINE
  5
464
330
1E
100
AcDbEntity
  8
ﾚｲﾔ1
  6
Continuous
100
AcDbLine
 10
2926.267665397356
 20
168.5272777020585
 30
0.0
 11
2929.267665397356
 21
166.9772777020585
 31
0.0
  0
LINE
  5
465
330
1E
100
AcDbEntity
  8
ﾚｲﾔ1
  6
Continuous
100
AcDbLine
 10
2926.267665397356
 20
170.5272777020585
 30
0.0
 11
2924.267665397355
 21
168.5272777020585
 31
0.0
  0
LINE
  5
466
330
1E
100
AcDbEntity
  8
ﾚｲﾔ1
  6
Continuous
100
AcDbLine
 10
3211.267667397355
 20
166.9772777020585
 30
0.0
 11
3211.267667397355
 21
209.9772777020586
 31
0.0
  0
LINE
  5
467
330
1E
100
AcDbEntity
  8
ﾚｲﾔ1
  6
Continuous
100
AcDbLine
 10
3213.267667397356
 20
168.5272777020585
 30
0.0
 11
3213.267667397356
 21
209.9772777020586
 31
0.0
  0
LINE
  5
468
330
1E
100
AcDbEntity
  8
ﾚｲﾔ1
  6
Continuous
100
AcDbLine
 10
3211.267667397355
 20
166.9772777020585
 30
0.0
 11
3213.267667397356
 21
168.5272777020585
 31
0.0
  0
LINE
  5
469
102
{ACAD_REACTORS
330
1965
102
}
330
1E
100
AcDbEntity
  8
ﾚｲﾔ1
  6
Continuous
100
AcDbLine
 10
2929.267665397356
 20
166.9772777020585
 30
0.0
 11
3211.267667397355
 21
166.9772777020585
 31
0.0
  0
LINE
  5
5CF
102
{ACAD_REACTORS
330
1963
102
}
330
1E
100
AcDbEntity
  8
ﾚｲﾔ1
  6
Continuous
100
AcDbLine
 10
2929.267665397356
 20
252.9772777020586
 30
0.0
 11
3211.267667397355
 21
252.9772777020586
 31
0.0
  0
DIMENSION
  5
676
330
1E
100
AcDbEntity
  8
寸法
  6
Continuous
100
AcDbDimension
280
     0
  2
*D6
 10
2812.140032183958
 20
171.9772777020586
 30
0.0
 11
2805.241155779463
 21
209.9772777020578
 31
0.0
 70
    32
  1
φ76
 71
     5
 42
76.00000000000008
 73
     0
 74
     0
 75
     0
  3
Standard
100
AcDbAlignedDimension
 13
2833.267665397356
 23
247.9772777020586
 33
0.0
 14
2833.267665397356
 24
171.9772777020585
 34
0.0
 50
90.0
100
AcDbRotatedDimension
1001
ACAD
1000
DSTYLE
1002
{
1070
   340
1005
E35
1070
   343
1005
0
1070
   342
1005
0
1070
   173
1070
     1
1070
   344
1005
0
1002
}
  0
DIMENSION
  5
68C
330
1E
100
AcDbEntity
  8
寸法
  6
Continuous
100
AcDbDimension
280
     0
  2
*D7
 10
3243.894947715823
 20
166.9772777020586
 30
0.0
 11
3236.996071311327
 21
209.9772777020577
 31
0.0
 70
    32
  1
φ86
 71
     5
 42
86.00000000000008
 73
     0
 74
     0
 75
     0
  3
Standard
100
AcDbAlignedDimension
 13
3211.267667397355
 23
252.9772777020586
 33
0.0
 14
3211.267667397355
 24
166.9772777020585
 34
0.0
 50
90.0
100
AcDbRotatedDimension
1001
ACAD
1000
DSTYLE
1002
{
1070
   340
1005
E35
1070
   343
1005
0
1070
   342
1005
0
1070
   173
1070
     1
1070
   344
1005
0
1002
}
  0
DIMENSION
  5
6A7
330
1E
100
AcDbEntity
  8
寸法
  6
Continuous
100
AcDbDimension
280
     0
  2
*D8
 10
2869.267665397356
 20
317.7946867909319
 30
0.0
 11
2850.267665397356
 21
323.7946867909319
 31
0.0
 70
    32
 71
     5
 42
38.0
 73
     0
 74
     0
 75
     0
  3
Standard
100
AcDbAlignedDimension
 13
2831.267665397356
 23
245.9772777020586
 33
0.0
 14
2869.267665397356
 24
245.9772777020586
 34
0.0
100
AcDbRotatedDimension
1001
ACAD
1000
DSTYLE
1002
{
1070
   173
1070
     1
1070
   340
1005
E35
1070
   342
1005
0
1002
}
  0
DIMENSION
  5
6C1
330
1E
100
AcDbEntity
  8
寸法
  6
Continuous
100
AcDbDimension
280
     0
  2
*D9
 10
2878.267665397356
 20
317.7988755434006
 30
0.0
 11
2873.767665397356
 21
323.7988755434006
 31
0.0
 70
    32
 71
     5
 42
9.0
 73
     0
 74
     0
 75
     0
  3
Standard
100
AcDbAlignedDimension
 13
2869.267665397356
 23
246.0397777020586
 33
0.0
 14
2878.267665397356
 24
249.4272777020585
 34
0.0
100
AcDbRotatedDimension
1001
ACAD
1000
DSTYLE
1002
{
1070
   173
1070
     1
1070
   340
1005
E35
1070
   342
1005
0
1002
}
  0
DIMENSION
  5
6CF
330
1E
100
AcDbEntity
  8
寸法
  6
Continuous
100
AcDbDimension
280
     0
  2
*D10
 10
2878.267665397356
 20
317.8030455149695
 30
0.0
 11
2919.517665397356
 21
323.8030455149695
 31
0.0
 70
    32
 71
     5
 42
82.49999999999955
 73
     0
 74
     0
 75
     0
  3
Standard
100
AcDbAlignedDimension
 13
2960.767665397355
 23
276.0772777020585
 33
0.0
 14
2878.267665397356
 24
317.8238917020585
 34
0.0
100
AcDbRotatedDimension
1001
ACAD
1000
DSTYLE
1002
{
1070
   340
1005
E35
1070
   343
1005
0
1070
   342
1005
0
1070
   173
1070
     1
1070
   344
1005
0
1002
}
  0
DIMENSION
  5
6DC
330
1E
100
AcDbEntity
  8
寸法
  6
Continuous
100
AcDbDimension
280
     0
  2
*D11
 10
3170.367667397356
 20
317.8030455149695
 30
0.0
 11
3065.567666397356
 21
323.8030455149695
 31
0.0
 70
    32
  1
209
 71
     5
 42
209.6000020000001
 73
     0
 74
     0
 75
     0
  3
Standard
100
AcDbAlignedDimension
 13
2960.767665397355
 23
317.8030455149695
 33
0.0
 14
3170.367667397356
 24
276.0772777020585
 34
0.0
100
AcDbRotatedDimension
1001
ACAD
1000
DSTYLE
1002
{
1070
   173
1070
     1
1070
   340
1005
E35
1070
   342
1005
0
1002
}
  0
DIMENSION
  5
6F2
330
1E
100
AcDbEntity
  8
寸法
  6
Continuous
100
AcDbDimension
280
     0
  2
*D12
 10
3213.267667397356
 20
317.7939722699455
 30
0.0
 11
3191.844887132428
 21
323.7939722699455
 31
0.0
 70
    32
 71
     5
 42
42.8455605298559
 73
     0
 74
     0
 75
     0
  3
Standard
100
AcDbAlignedDimension
 13
3170.4221068675
 23
317.7939722699455
 33
0.0
 14
3213.267667397356
 24
251.4272777020585
 34
0.0
100
AcDbRotatedDimension
1001
ACAD
1000
DSTYLE
1002
{
1070
   340
1005
E35
1070
   343
1005
0
1070
   342
1005
0
1070
   173
1070
     1
1070
   344
1005
0
1002
}
  0
DIMENSION
  5
6FF
330
1E
100
AcDbEntity
  8
寸法
  6
Continuous
100
AcDbDimension
280
     0
  2
*D13
 10
3213.267667397356
 20
338.6221050903253
 30
0.0
 11
3022.267666397356
 21
344.6221050903253
 31
0.0
 70
    32
 71
     5
 42
382.0000019999998
 73
     0
 74
     0
 75
     0
  3
Standard
100
AcDbAlignedDimension
 13
2831.267665397356
 23
317.8238917020585
 33
0.0
 14
3213.267667397356
 24
317.6473354490799
 34
0.0
100
AcDbRotatedDimension
1001
ACAD
1000
DSTYLE
1002
{
1070
   340
1005
E35
1070
   343
1005
0
1070
   342
1005
0
1070
   173
1070
     1
1070
   344
1005
0
1002
}
  0
LINE
  5
8A5
330
1E
100
AcDbEntity
  8
ﾚｲﾔ1
  6
Continuous
100
AcDbLine
 10
2742.449615397356
 20
232.1272777020586
 30
0.0
 11
2742.049615397356
 21
232.7772777020586
 31
0.0
  0
CIRCLE
  5
9EE
330
1E
100
AcDbEntity
  8
ﾚｲﾔ1
  6
Continuous
100
AcDbCircle
 10
2705.599615397356
 20
209.9772777020586
 30
0.0
 40
38.01164295317947
  0
CIRCLE
  5
9EF
102
{ACAD_REACTORS
330
1953
102
}
330
1E
100
AcDbEntity
  8
ﾚｲﾔ1
  6
Continuous
100
AcDbCircle
 10
2705.599615397356
 20
209.9772777020586
 30
0.0
 40
42.9910019655276
  0
LINE
  5
11C5
330
1E
100
AcDbEntity
  8
図面枠
  6
Continuous
100
AcDbLine
 10
3278.681904584686
 20
493.1639439746541
 30
0.0
 11
2640.228245866472
 21
493.1639439746541
 31
0.0
  0
LINE
  5
11C6
330
1E
100
AcDbEntity
  8
図面枠
  6
Continuous
100
AcDbLine
 10
2640.228245866472
 20
493.1639439746541
 30
0.0
 11
2640.228245866472
 21
46.24638287190103
 31
0.0
  0
LINE
  5
11C7
330
1E
100
AcDbEntity
  8
図面枠
  6
Continuous
100
AcDbLine
 10
3278.681904584686
 20
46.24638287190103
 30
0.0
 11
2640.228245866472
 21
46.24638287190103
 31
0.0
  0
LINE
  5
11C8
330
1E
100
AcDbEntity
  8
図面枠
  6
Continuous
100
AcDbLine
 10
3169.677621388898
 20
58.32549001812544
 30
0.0
 11
3147.876764749739
 21
58.32549001812544
 31
0.0
  0
LINE
  5
11C9
330
1E
100
AcDbEntity
  8
図面枠
  6
Continuous
100
AcDbLine
 10
3186.806865891091
 20
58.32549001812544
 30
0.0
 11
3169.677621388898
 21
58.32549001812544
 31
0.0
  0
LINE
  5
11CA
330
1E
100
AcDbEntity
  8
図面枠
  6
Continuous
100
AcDbLine
 10
3193.035682073714
 20
58.32549001812544
 30
0.0
 11
3186.806865891091
 21
58.32549001812544
 31
0.0
  0
LINE
  5
11CB
330
1E
100
AcDbEntity
  8
図面枠
  6
Continuous
100
AcDbLine
 10
3258.438251991189
 20
58.32549001812544
 30
0.0
 11
3193.035682073714
 21
58.32549001812544
 31
0.0
  0
LINE
  5
11CC
330
1E
100
AcDbEntity
  8
図面枠
  6
Continuous
100
AcDbLine
 10
3147.876764749739
 20
66.111510246396
 30
0.0
 11
3147.876764749739
 21
58.32549001812544
 31
0.0
  0
LINE
  5
11CD
330
1E
100
AcDbEntity
  8
図面枠
  6
Continuous
100
AcDbLine
 10
3147.876764749739
 20
73.89753047466732
 30
0.0
 11
3147.876764749739
 21
66.111510246396
 31
0.0
  0
LINE
  5
11CE
330
1E
100
AcDbEntity
  8
図面枠
  6
Continuous
100
AcDbLine
 10
3147.876764749739
 20
81.68355070293852
 30
0.0
 11
3147.876764749739
 21
73.89753047466732
 31
0.0
  0
LINE
  5
11CF
330
1E
100
AcDbEntity
  8
図面枠
  6
Continuous
100
AcDbLine
 10
3147.876764749739
 20
81.68355070293852
 30
0.0
 11
3147.876764749739
 21
46.24638287190103
 31
0.0
  0
LINE
  5
11D0
330
1E
100
AcDbEntity
  8
図面枠
  6
Continuous
100
AcDbLine
 10
3147.876764749739
 20
58.32549001812544
 30
0.0
 11
3155.662784978001
 21
58.32549001812544
 31
0.0
  0
LINE
  5
11D1
330
1E
100
AcDbEntity
  8
図面枠
  6
Continuous
100
AcDbLine
 10
3155.662784978001
 20
58.32549001812544
 30
0.0
 11
3155.662784978001
 21
81.68355070293852
 31
0.0
  0
LINE
  5
11D2
330
1E
100
AcDbEntity
  8
図面枠
  6
Continuous
100
AcDbLine
 10
3155.662784978001
 20
81.68355070293852
 30
0.0
 11
3147.876764749739
 21
81.68355070293852
 31
0.0
  0
LINE
  5
11D3
330
1E
100
AcDbEntity
  8
図面枠
  6
Continuous
100
AcDbLine
 10
3155.662784978001
 20
58.32549001812544
 30
0.0
 11
3155.662784978001
 21
81.68355070293852
 31
0.0
  0
LINE
  5
11D4
330
1E
100
AcDbEntity
  8
図面枠
  6
Continuous
100
AcDbLine
 10
3155.662784978001
 20
81.68355070293852
 30
0.0
 11
3278.681904584686
 21
81.68355070293852
 31
0.0
  0
LINE
  5
11D5
330
1E
100
AcDbEntity
  8
図面枠
  6
Continuous
100
AcDbLine
 10
3258.438251991189
 20
81.68355070293852
 30
0.0
 11
3258.438251991189
 21
58.32549001812544
 31
0.0
  0
LINE
  5
11D6
330
1E
100
AcDbEntity
  8
図面枠
  6
Continuous
100
AcDbLine
 10
3278.681904584686
 20
58.32549001812544
 30
0.0
 11
3155.662784978001
 21
58.32549001812544
 31
0.0
  0
TEXT
  5
11D7
330
1E
100
AcDbEntity
  8
図面枠
100
AcDbText
 10
3260.768225834777
 20
73.63945452328106
 30
0.0
 40
4.152544121744499
  1
尺  度
  7
WMF-ＭＳ Ｐ明朝0
 72
     4
 11
3268.560078287939
 21
75.8440355317353
 31
0.0
100
AcDbText
  0
TEXT
  5
11D8
330
1E
100
AcDbEntity
  8
図面枠
100
AcDbText
 10
3263.114238296816
 20
61.88168914485898
 30
0.0
 40
4.671612136962558
  1
１：2
  7
WMF-ＭＳ Ｐ明朝0
 72
     4
 11
3268.560078287939
 21
64.16500518932945
 31
0.0
100
AcDbText
  0
MTEXT
  5
11D9
330
1E
100
AcDbEntity
  8
図面枠
370
    30
100
AcDbMText
 10
3213.279334667208
 20
52.28593644501225
 30
0.0
 40
6.326141435470135
 41
124.3876121474788
 46
5.058065704007384
 71
     5
 72
     5
  1
株式会社　関東油機サービス
  7
WMF-ＭＳ Ｐ明朝0
 73
     1
 44
1.0
  0
MTEXT
  5
11DA
330
1E
100
AcDbEntity
  8
文字
 62
     0
100
AcDbMText
 10
3207.050518484595
 20
64.16500518932945
 30
0.0
 40
5.839515171203201
 41
98.10385487621383
 46
7.786020228270938
 71
     5
 72
     5
  1
HM-2015
  7
WMF-ＭＳ Ｐ明朝0
 73
     1
 44
1.0
  0
TEXT
  5
11DB
330
1E
100
AcDbEntity
  8
図面枠
100
AcDbText
 10
3148.270439929819
 20
73.43824276457294
 30
0.0
 40
4.866262642669335
  1
名
  7
WMF-ＭＳ Ｐ明朝0
 72
     4
 11
3151.769774863873
 21
75.8440355317353
 31
0.0
100
AcDbText
  0
TEXT
  5
11DC
330
1E
100
AcDbEntity
  8
図面枠
100
AcDbText
 10
3148.270439929819
 20
61.75921242216708
 30
0.0
 40
4.866262642669335
  1
称
  7
WMF-ＭＳ Ｐ明朝0
 72
     4
 11
3151.769774863873
 21
64.16500518932945
 31
0.0
100
AcDbText
  0
LINE
  5
11DD
330
1E
100
AcDbEntity
  8
図面枠
  6
Continuous
100
AcDbLine
 10
3155.662784978001
 20
70.00452036052944
 30
0.0
 11
3278.681904584686
 21
70.00452036052944
 31
0.0
  0
MTEXT
  5
11DE
330
1E
100
AcDbEntity
  8
文字
 62
     0
100
AcDbMText
 10
3207.050518484595
 20
75.8440355317353
 30
0.0
 40
5.839515171203201
 41
98.10385487621372
 46
5.905127701216717
 71
     5
 72
     5
  1
200KN150st 複動ジャッキ
  7
WMF-ＭＳ Ｐ明朝0
 73
     1
 44
1.0
  0
MTEXT
  5
11DF
330
1E
100
AcDbEntity
  8
ﾚｲﾔ1
 62
     0
100
AcDbMText
 10
3230.258854284186
 20
444.9879438122267
 30
0.0
 40
4.866262642669335
 41
8.247922484735161
 46
1.962077097524232
 71
     5
 72
     5
  1
150
  7
WMF-ＭＳ Ｐ明朝0
 73
     1
 44
1.0
1001
ACAD
1000
ACAD_MTEXT_DEFINED_HEIGHT_BEGIN
1070
    46
1040
40.68
1000
ACAD_MTEXT_DEFINED_HEIGHT_END
  0
LINE
  5
11E0
330
1E
100
AcDbEntity
  8
ﾚｲﾔ1
 62
     0
100
AcDbLine
 10
3268.479252294209
 20
482.4581661607801
 30
0.0
 11
3268.479252294209
 21
396.8119436498006
 31
0.0
  0
LINE
  5
11E1
330
1E
100
AcDbEntity
  8
ﾚｲﾔ1
 62
     0
100
AcDbLine
 10
3244.14793908086
 20
471.7523883469081
 30
0.0
 11
3244.14793908086
 21
396.8119436498006
 31
0.0
  0
LINE
  5
11E2
330
1E
100
AcDbEntity
  8
ﾚｲﾔ1
 62
     0
100
AcDbLine
 10
3155.991306115001
 20
471.7523883469081
 30
0.0
 11
3268.479252294209
 21
471.7523883469081
 31
0.0
  0
MTEXT
  5
11E3
330
1E
100
AcDbEntity
  8
ﾚｲﾔ1
 62
     0
100
AcDbMText
 10
3212.22793439716
 20
477.0696470166907
 30
0.0
 40
4.866262642669335
 41
24.49383898372833
 46
7.296124419548617
 71
     5
 72
     5
  1
仕  様
  7
WMF-ＭＳ Ｐ明朝0
 73
     1
 44
1.0
1001
ACAD
1000
ACAD_MTEXT_DEFINED_HEIGHT_BEGIN
1070
    46
1040
34.896
1000
ACAD_MTEXT_DEFINED_HEIGHT_END
  0
MTEXT
  5
11E4
330
1E
100
AcDbEntity
  8
ﾚｲﾔ1
 62
     0
100
AcDbMText
 10
3229.137973563123
 20
434.2821659983539
 30
0.0
 40
4.866262642669335
 41
16.81869715916085
 46
3.959191286075771
 71
     5
 72
     5
  1
60.1
  7
WMF-ＭＳ Ｐ明朝0
 73
     1
 44
1.0
1001
ACAD
1000
ACAD_MTEXT_DEFINED_HEIGHT_BEGIN
1070
    46
1040
40.68
1000
ACAD_MTEXT_DEFINED_HEIGHT_END
  0
LINE
  5
11E5
330
1E
100
AcDbEntity
  8
ﾚｲﾔ1
 62
     0
100
AcDbLine
 10
3173.555395099386
 20
418.223499277543
 30
0.0
 11
3268.479252294209
 21
418.223499277543
 31
0.0
  0
LINE
  5
11E6
330
1E
100
AcDbEntity
  8
ﾚｲﾔ1
 62
     0
100
AcDbLine
 10
3155.991306115001
 20
482.4581661607801
 30
0.0
 11
3155.991306115001
 21
396.8119436498006
 31
0.0
  0
MTEXT
  5
11E7
330
1E
100
AcDbEntity
  8
ﾚｲﾔ1
 62
     0
100
AcDbMText
 10
3173.597418604874
 20
455.6937216260991
 30
0.0
 40
4.866262642669335
 41
63.21196633909614
 46
5.03755508769129
 71
     5
 72
     5
  1
機械高さ
  7
WMF-ＭＳ Ｐ明朝0
 73
     1
 44
1.0
1001
ACAD
1000
ACAD_MTEXT_DEFINED_HEIGHT_BEGIN
1070
    46
1040
51.76
1000
ACAD_MTEXT_DEFINED_HEIGHT_END
  0
MTEXT
  5
11E8
330
1E
100
AcDbEntity
  8
ﾚｲﾔ1
 62
     0
100
AcDbMText
 10
3167.254874036899
 20
466.3994994399717
 30
0.0
 40
4.866262642669335
 41
63.21196633909614
 46
5.494098813035133
 71
     5
 72
     5
  1
能力
  7
WMF-ＭＳ Ｐ明朝0
 73
     1
 44
1.0
1001
ACAD
1000
ACAD_MTEXT_DEFINED_HEIGHT_BEGIN
1070
    46
1040
51.76
1000
ACAD_MTEXT_DEFINED_HEIGHT_END
  0
MTEXT
  5
11E9
330
1E
100
AcDbEntity
  8
ﾚｲﾔ1
 62
     0
100
AcDbMText
 10
3256.313595687533
 20
444.9892948050155
 30
0.0
 40
4.866262642669335
 41
21.59405887145384
 46
6.270297399653987
 71
     5
 72
     5
  1
mm
  7
WMF-ＭＳ Ｐ明朝0
 73
     1
 44
1.0
1001
ACAD
1000
ACAD_MTEXT_DEFINED_HEIGHT_BEGIN
1070
    46
1040
40.68
1000
ACAD_MTEXT_DEFINED_HEIGHT_END
  0
MTEXT
  5
11EA
330
1E
100
AcDbEntity
  8
ﾚｲﾔ1
 62
     0
100
AcDbMText
 10
3230.108492236239
 20
455.6937216261
 30
0.0
 40
4.866262642669335
 41
0.0
 46
7.348123096595686
 71
     5
 72
     5
  1
382
  7
WMF-ＭＳ Ｐ明朝0
 73
     1
 44
1.0
1001
ACAD
1000
ACAD_MTEXT_DEFINED_HEIGHT_BEGIN
1070
    46
1040
40.68
1000
ACAD_MTEXT_DEFINED_HEIGHT_END
  0
MTEXT
  5
11EB
330
1E
100
AcDbEntity
  8
ﾚｲﾔ1
 62
     0
100
AcDbMText
 10
3256.313595687534
 20
455.6937216261
 30
0.0
 40
4.866262642669335
 41
19.35802944623054
 46
0.0
 71
     5
 72
     5
  1
mm
  7
WMF-ＭＳ Ｐ明朝0
 73
     1
 44
1.0
1001
ACAD
1000
ACAD_MTEXT_DEFINED_HEIGHT_BEGIN
1070
    46
1040
40.68
1000
ACAD_MTEXT_DEFINED_HEIGHT_END
  0
LINE
  5
11EC
330
1E
100
AcDbEntity
  8
0
100
AcDbLine
 10
3155.991306115001
 20
439.6600371953598
 30
0.0
 11
3268.479252294209
 21
439.6350549052902
 31
0.0
  0
LINE
  5
11ED
330
1E
100
AcDbEntity
  8
0
100
AcDbLine
 10
3155.991306115001
 20
450.3408327191627
 30
0.0
 11
3268.479252294209
 21
450.3408327191642
 31
0.0
  0
LINE
  5
11EE
330
1E
100
AcDbEntity
  8
図面枠
100
AcDbLine
 10
3278.681904584686
 20
493.1639439746541
 30
0.0
 11
3278.681904584686
 21
46.24638287190103
 31
0.0
  0
MTEXT
  5
11EF
330
1E
100
AcDbEntity
  8
ﾚｲﾔ1
 62
     0
100
AcDbMText
 10
3256.112127210645
 20
412.8706103706085
 30
0.0
 40
4.866262642669335
 41
63.21196633909614
 46
5.03755508769129
 71
     5
 72
     5
  1
mm
  7
WMF-ＭＳ Ｐ明朝0
 73
     1
 44
1.0
1001
ACAD
1000
ACAD_MTEXT_DEFINED_HEIGHT_BEGIN
1070
    46
1040
51.76
1000
ACAD_MTEXT_DEFINED_HEIGHT_END
  0
LINE
  5
11F0
330
1E
100
AcDbEntity
  8
ﾚｲﾔ1
 62
     0
100
AcDbLine
 10
3173.353926622482
 20
407.5177214636719
 30
0.0
 11
3268.277783817325
 21
407.5177214636725
 31
0.0
  0
MTEXT
  5
11F1
330
1E
100
AcDbEntity
  8
ﾚｲﾔ1
 62
     0
100
AcDbMText
 10
3171.683719812813
 20
412.8867489448088
 30
0.0
 40
4.866262642669335
 41
63.21196633909614
 46
5.03755508769129
 71
     5
 72
     5
  1
ロッド径
  7
WMF-ＭＳ Ｐ明朝0
 73
     1
 44
1.0
1001
ACAD
1000
ACAD_MTEXT_DEFINED_HEIGHT_BEGIN
1070
    46
1040
51.76
1000
ACAD_MTEXT_DEFINED_HEIGHT_END
  0
MTEXT
  5
11F2
330
1E
100
AcDbEntity
  8
ﾚｲﾔ1
 62
     0
100
AcDbMText
 10
3228.645879588021
 20
412.9695886581861
 30
0.0
 40
4.866262642669335
 41
13.50169263852061
 46
3.980854706984609
 71
     5
 72
     5
  1
Φ44
  7
WMF-ＭＳ Ｐ明朝0
 73
     1
 44
1.0
1001
ACAD
1000
ACAD_MTEXT_DEFINED_HEIGHT_BEGIN
1070
    46
1040
40.68
1000
ACAD_MTEXT_DEFINED_HEIGHT_END
  0
MTEXT
  5
11F3
330
1E
100
AcDbEntity
  8
ﾚｲﾔ1
 62
     0
100
AcDbMText
 10
3231.858159703266
 20
423.5763881844806
 30
0.0
 40
4.866262642669335
 41
16.81869715916085
 46
3.959191286075771
 71
     5
 72
     5
  1
33
  7
WMF-ＭＳ Ｐ明朝0
 73
     1
 44
1.0
1001
ACAD
1000
ACAD_MTEXT_DEFINED_HEIGHT_BEGIN
1070
    46
1040
40.68
1000
ACAD_MTEXT_DEFINED_HEIGHT_END
  0
MTEXT
  5
11F4
330
1E
100
AcDbEntity
  8
ﾚｲﾔ1
 62
     0
100
AcDbMText
 10
3256.313595687533
 20
423.5763881844806
 30
0.0
 40
4.866262642669335
 41
63.21196633909632
 46
3.959191286075771
 71
     5
 72
     5
  1
cm²
  7
WMF-ＭＳ Ｐ明朝0
 73
     1
 44
1.0
1001
ACAD
1000
ACAD_MTEXT_DEFINED_HEIGHT_BEGIN
1070
    46
1040
40.68
1000
ACAD_MTEXT_DEFINED_HEIGHT_END
  0
LINE
  5
11F5
330
1E
100
AcDbEntity
  8
ﾚｲﾔ1
 62
     0
100
AcDbLine
 10
3155.991306115001
 20
428.9792416715566
 30
0.0
 11
3268.364261774104
 21
428.9792416715566
 31
0.0
  0
MTEXT
  5
11F6
330
1E
100
AcDbEntity
  8
ﾚｲﾔ1
 62
     0
100
AcDbMText
 10
3174.526929446733
 20
423.5925267586806
 30
0.0
 40
4.866262642669335
 41
63.21196633909614
 46
5.03755508769129
 71
     5
 72
     5
  1
受圧面積
  7
WMF-ＭＳ Ｐ明朝0
 73
     1
 44
1.0
1001
ACAD
1000
ACAD_MTEXT_DEFINED_HEIGHT_BEGIN
1070
    46
1040
51.76
1000
ACAD_MTEXT_DEFINED_HEIGHT_END
  0
LINE
  5
11F7
330
1E
100
AcDbEntity
  8
ﾚｲﾔ1
 62
     0
100
AcDbLine
 10
3155.991306115001
 20
418.223499277543
 30
0.0
 11
3173.353926622482
 21
418.223499277543
 31
0.0
  0
MTEXT
  5
11F8
330
1E
100
AcDbEntity
  8
ﾚｲﾔ1
 62
     0
100
AcDbMText
 10
3256.244324164878
 20
434.2821659983539
 30
0.0
 40
4.866262642669335
 41
18.85680452956124
 46
11.21930861207144
 71
     5
 72
     5
  1
MPa
  7
WMF-ＭＳ Ｐ明朝0
 73
     1
 44
1.0
1001
ACAD
1000
ACAD_MTEXT_DEFINED_HEIGHT_BEGIN
1070
    46
1040
40.68
1000
ACAD_MTEXT_DEFINED_HEIGHT_END
  0
LINE
  5
11F9
330
1E
100
AcDbEntity
  8
ﾚｲﾔ1
 62
     0
100
AcDbLine
 10
3173.756863576273
 20
407.5177214636719
 30
0.0
 11
3268.680720771101
 21
407.5177214636719
 31
0.0
  0
MTEXT
  5
11FA
330
1E
100
AcDbEntity
  8
ﾚｲﾔ1
 62
     0
100
AcDbMText
 10
3256.313595687534
 20
402.1648325567357
 30
0.0
 40
4.866262642669335
 41
63.21196633909614
 46
5.03755508769129
 71
     5
 72
     5
  1
kg
  7
WMF-ＭＳ Ｐ明朝0
 73
     1
 44
1.0
1001
ACAD
1000
ACAD_MTEXT_DEFINED_HEIGHT_BEGIN
1070
    46
1040
51.76
1000
ACAD_MTEXT_DEFINED_HEIGHT_END
  0
LINE
  5
11FB
330
1E
100
AcDbEntity
  8
ﾚｲﾔ1
 62
     0
100
AcDbLine
 10
3173.555395099381
 20
396.8119436498006
 30
0.0
 11
3268.479252294209
 21
396.8119436498006
 31
0.0
  0
MTEXT
  5
11FC
330
1E
100
AcDbEntity
  8
ﾚｲﾔ1
 62
     0
100
AcDbMText
 10
3167.500921024452
 20
402.1809711309353
 30
0.0
 40
4.866262642669335
 41
63.21196633909614
 46
5.03755508769129
 71
     5
 72
     5
  1
重量
  7
WMF-ＭＳ Ｐ明朝0
 73
     1
 44
1.0
1001
ACAD
1000
ACAD_MTEXT_DEFINED_HEIGHT_BEGIN
1070
    46
1040
51.76
1000
ACAD_MTEXT_DEFINED_HEIGHT_END
  0
MTEXT
  5
11FD
330
1E
100
AcDbEntity
  8
ﾚｲﾔ1
 62
     0
100
AcDbMText
 10
3225.447268749861
 20
402.2638108443146
 30
0.0
 40
4.866262642669335
 41
22.51343168063148
 46
3.980854706984609
 71
     5
 72
     5
  1
約13.5
  7
WMF-ＭＳ Ｐ明朝0
 73
     1
 44
1.0
1001
ACAD
1000
ACAD_MTEXT_DEFINED_HEIGHT_BEGIN
1070
    46
1040
40.68
1000
ACAD_MTEXT_DEFINED_HEIGHT_END
  0
LINE
  5
11FE
330
1E
100
AcDbEntity
  8
ﾚｲﾔ1
 62
     0
100
AcDbLine
 10
3155.991306115001
 20
396.8119436498006
 30
0.0
 11
3268.479252294209
 21
396.8119436498006
 31
0.0
  0
LINE
  5
11FF
330
1E
100
AcDbEntity
  8
ﾚｲﾔ1
 62
     0
100
AcDbLine
 10
3155.991306115001
 20
407.5177214636719
 30
0.0
 11
3173.555395099381
 21
407.5177214636719
 31
0.0
  0
LINE
  5
1200
330
1E
100
AcDbEntity
  8
図面
100
AcDbLine
 10
3191.203531094749
 20
471.7523883469081
 30
0.0
 11
3191.203531094749
 21
396.8119436498006
 31
0.0
  0
LINE
  5
1201
330
1E
100
AcDbEntity
  8
図面
100
AcDbLine
 10
3155.991306115001
 20
482.4581661607801
 30
0.0
 11
3268.479252294209
 21
482.4581661607801
 31
0.0
  0
LINE
  5
1202
330
1E
100
AcDbEntity
  8
図面
  6
Continuous
100
AcDbLine
 10
3155.991306115001
 20
461.0466105330352
 30
0.0
 11
3268.479252294209
 21
461.0466105330352
 31
0.0
  0
MTEXT
  5
1203
330
1E
100
AcDbEntity
  8
ﾚｲﾔ1
 62
     0
100
AcDbMText
 10
3230.040145850808
 20
466.3994994399713
 30
0.0
 40
4.866262642669335
 41
6.123836134595117
 46
7.348123096595686
 71
     5
 72
     5
  1
200
  7
WMF-ＭＳ Ｐ明朝0
 73
     1
 44
1.0
1001
ACAD
1000
ACAD_MTEXT_DEFINED_HEIGHT_BEGIN
1070
    46
1040
40.68
1000
ACAD_MTEXT_DEFINED_HEIGHT_END
  0
MTEXT
  5
1204
330
1E
100
AcDbEntity
  8
ﾚｲﾔ1
 62
     0
100
AcDbMText
 10
3256.313595687534
 20
466.3994994399713
 30
0.0
 40
4.866262642669335
 41
19.35802944623054
 46
0.0
 71
     5
 72
     5
  1
KN
  7
WMF-ＭＳ Ｐ明朝0
 73
     1
 44
1.0
1001
ACAD
1000
ACAD_MTEXT_DEFINED_HEIGHT_BEGIN
1070
    46
1040
40.68
1000
ACAD_MTEXT_DEFINED_HEIGHT_END
  0
MTEXT
  5
1205
330
1E
100
AcDbEntity
  8
ﾚｲﾔ1
 62
     0
100
AcDbMText
 10
3174.321890290443
 20
444.9984799647324
 30
0.0
 40
4.866262642669335
 41
63.21196633909614
 46
5.494098813035133
 71
     5
 72
     5
  1
ストローク
  7
WMF-ＭＳ Ｐ明朝0
 73
     1
 44
1.0
1001
ACAD
1000
ACAD_MTEXT_DEFINED_HEIGHT_BEGIN
1070
    46
1040
51.76
1000
ACAD_MTEXT_DEFINED_HEIGHT_END
  0
MTEXT
  5
1206
330
1E
100
AcDbEntity
  8
ﾚｲﾔ1
 62
     0
100
AcDbMText
 10
3174.376567398786
 20
434.4294940786487
 30
0.0
 40
4.866262642669335
 41
63.21196633909614
 46
5.494098813035133
 71
     5
 72
     5
  1
使用圧力
  7
WMF-ＭＳ Ｐ明朝0
 73
     1
 44
1.0
1001
ACAD
1000
ACAD_MTEXT_DEFINED_HEIGHT_BEGIN
1070
    46
1040
51.76
1000
ACAD_MTEXT_DEFINED_HEIGHT_END
  0
INSERT
  5
1957
102
{ACAD_REACTORS
330
1959
102
}
330
1E
100
AcDbEntity
  8
005　中心線
  6
CENTER2
100
AcDbBlockReference
  2
*U30
 10
2705.599615397356
 20
209.9772777020586
 30
0.0
  0
INSERT
  5
1969
102
{ACAD_REACTORS
330
196A
102
}
330
1E
100
AcDbEntity
  8
005　中心線
  6
CENTER2
100
AcDbBlockReference
  2
*U31
 10
3070.267666397355
 20
209.9772777020585
 30
0.0
  0
LINE
  5
1A5B
102
{ACAD_REACTORS
330
1B34
102
}
330
1E
100
AcDbEntity
  8
図面
 62
     0
100
AcDbLine
 10
3177.518431298089
 20
258.8742484985582
 30
0.0
 11
3163.118428631583
 21
258.8742484985582
 31
0.0
  0
LINE
  5
1A5C
102
{ACAD_REACTORS
330
1B34
102
}
330
1E
100
AcDbEntity
  8
図面
 62
     0
100
AcDbLine
 10
3175.850622212748
 20
270.8742692026266
 30
0.0
 11
3164.308379458245
 21
270.8742692026266
 31
0.0
  0
LINE
  5
1A5D
102
{ACAD_REACTORS
330
1B34
102
}
330
1E
100
AcDbEntity
  8
図面
 62
     0
100
AcDbLine
 10
3177.518431298089
 20
270.0704216253334
 30
0.0
 11
3177.518431298089
 21
265.3109235582418
 31
0.0
  0
LINE
  5
1A5E
102
{ACAD_REACTORS
330
1B34
102
}
330
1E
100
AcDbEntity
  8
図面
 62
     0
100
AcDbLine
 10
3177.518431298089
 20
265.3109235582418
 30
0.0
 11
3177.518431298089
 21
258.8742484985582
 31
0.0
  0
LINE
  5
1A5F
102
{ACAD_REACTORS
330
1B34
102
}
330
1E
100
AcDbEntity
  8
図面
 62
     0
100
AcDbLine
 10
3163.118428631583
 20
270.3282071792167
 30
0.0
 11
3163.118428631583
 21
266.1594893098731
 31
0.0
  0
LINE
  5
1A60
102
{ACAD_REACTORS
330
1B34
102
}
330
1E
100
AcDbEntity
  8
図面
 62
     0
100
AcDbLine
 10
3163.118428631583
 20
266.1594893098731
 30
0.0
 11
3163.118428631583
 21
258.8742484985582
 31
0.0
  0
LINE
  5
1A61
102
{ACAD_REACTORS
330
1B34
102
}
330
1E
100
AcDbEntity
  8
図面
 62
     0
100
AcDbLine
 10
3175.850622212748
 20
270.8742692026266
 30
0.0
 11
3177.518431298089
 21
270.0704216253334
 31
0.0
  0
LINE
  5
1A62
102
{ACAD_REACTORS
330
1B34
102
}
330
1E
100
AcDbEntity
  8
図面
 62
     0
100
AcDbLine
 10
3164.308379458245
 20
270.8742692026266
 30
0.0
 11
3163.118428631583
 21
270.3282071792167
 31
0.0
  0
LINE
  5
1A63
102
{ACAD_REACTORS
330
1B34
102
}
330
1E
100
AcDbEntity
  8
図面
 62
     0
100
AcDbLine
 10
3175.514577293606
 20
270.0704216253334
 30
0.0
 11
3175.514577293606
 21
266.5918682507439
 31
0.0
  0
LINE
  5
1A64
102
{ACAD_REACTORS
330
1B34
102
}
330
1E
100
AcDbEntity
  8
図面
 62
     0
100
AcDbLine
 10
3175.514577293606
 20
266.5918682507439
 30
0.0
 11
3175.514577293606
 21
258.8742484985582
 31
0.0
  0
LINE
  5
1A65
102
{ACAD_REACTORS
330
1B34
102
}
330
1E
100
AcDbEntity
  8
図面
 62
     0
100
AcDbLine
 10
3165.122272448193
 20
270.0704216253334
 30
0.0
 11
3165.122272448193
 21
265.5132368638438
 31
0.0
  0
LINE
  5
1A66
102
{ACAD_REACTORS
330
1B34
102
}
330
1E
100
AcDbEntity
  8
図面
 62
     0
100
AcDbLine
 10
3165.122272448193
 20
265.5132368638438
 30
0.0
 11
3165.122272448193
 21
258.8742484985582
 31
0.0
  0
ARC
  5
1A67
102
{ACAD_REACTORS
330
1B34
102
}
330
1E
100
AcDbEntity
  8
図面
 62
     0
100
AcDbCircle
 10
3170.3184248709
 20
253.6781167799201
 30
0.0
 40
17.19615242270723
100
AcDbArc
 50
72.41204622600903
 51
107.5879537739909
  0
ARC
  5
1A68
102
{ACAD_REACTORS
330
1B34
102
}
330
1E
100
AcDbEntity
  8
図面
 62
     0
100
AcDbCircle
 10
3176.516504295848
 20
268.1677970481869
 30
0.0
 40
2.150311140133498
100
AcDbArc
 50
62.22859364252317
 51
117.7714063574474
  0
ARC
  5
1A69
102
{ACAD_REACTORS
330
1B34
102
}
330
1E
100
AcDbEntity
  8
図面
 62
     0
100
AcDbCircle
 10
3163.914978964554
 20
268.602900037153
 30
0.0
 40
1.900309755648141
100
AcDbArc
 50
50.55671927416493
 51
114.782113942663
  0
LINE
  5
1A6A
102
{ACAD_REACTORS
330
1B34
102
}
330
1E
100
AcDbEntity
  8
図面
 62
     0
100
AcDbLine
 10
3175.4184248709
 20
258.8742484985582
 30
0.0
 11
3175.4184248709
 21
257.674248498558
 31
0.0
  0
LINE
  5
1A6B
102
{ACAD_REACTORS
330
1B34
102
}
330
1E
100
AcDbEntity
  8
図面
 62
     0
100
AcDbLine
 10
3165.218424870899
 20
258.8742484985582
 30
0.0
 11
3165.218424870899
 21
257.674248498558
 31
0.0
  0
LINE
  5
1A6C
102
{ACAD_REACTORS
330
1B34
102
}
330
1E
100
AcDbEntity
  8
図面
 62
     0
100
AcDbLine
 10
3174.8184248709
 20
254.0742547070899
 30
0.0
 11
3165.8184248709
 21
254.0742547070899
 31
0.0
  0
LINE
  5
1A6D
102
{ACAD_REACTORS
330
1B34
102
}
330
1E
100
AcDbEntity
  8
図面
 62
     0
100
AcDbLine
 10
3175.4184248709
 20
257.674248498558
 30
0.0
 11
3175.289815599172
 21
252.9772777020586
 31
0.0
  0
LINE
  5
1A6E
102
{ACAD_REACTORS
330
1B34
102
}
330
1E
100
AcDbEntity
  8
図面
 62
     0
100
AcDbLine
 10
3165.218424870899
 20
257.674248498558
 30
0.0
 11
3165.347034142627
 21
252.9772777020586
 31
0.0
  0
LINE
  5
1A6F
102
{ACAD_REACTORS
330
1B34
102
}
330
1E
100
AcDbEntity
  8
図面
 62
     0
100
AcDbLine
 10
3165.8184248709
 20
254.0742547070899
 30
0.0
 11
3165.8184248709
 21
252.9772777020586
 31
0.0
  0
LINE
  5
1A70
102
{ACAD_REACTORS
330
1B34
102
}
330
1E
100
AcDbEntity
  8
図面
 62
     0
100
AcDbLine
 10
3165.8184248709
 20
254.0742547070899
 30
0.0
 11
3165.304197378646
 21
254.5417296792752
 31
0.0
  0
LINE
  5
1A71
102
{ACAD_REACTORS
330
1B34
102
}
330
1E
100
AcDbEntity
  8
図面
 62
     0
100
AcDbLine
 10
3174.8184248709
 20
254.0742547070899
 30
0.0
 11
3174.8184248709
 21
252.9772777020586
 31
0.0
  0
LINE
  5
1A72
102
{ACAD_REACTORS
330
1B34
102
}
330
1E
100
AcDbEntity
  8
図面
 62
     0
100
AcDbLine
 10
3174.8184248709
 20
254.0742547070899
 30
0.0
 11
3175.332652363154
 21
254.5417296792752
 31
0.0
  0
LINE
  5
1A73
102
{ACAD_REACTORS
330
1B34
102
}
330
1E
100
AcDbEntity
  8
005　中心線
100
AcDbLine
 10
3170.3184248709
 20
317.8224621988511
 30
0.0
 11
3170.3184248709
 21
250.9772777020585
 31
0.0
  0
LINE
  5
1A74
102
{ACAD_REACTORS
330
1B34
102
}
330
1E
100
AcDbEntity
  8
図面
 62
     0
100
AcDbLine
 10
3178.718424870899
 20
300.1516224599561
 30
0.0
 11
3161.9184248709
 21
300.1516224599561
 31
0.0
  0
LINE
  5
1A75
102
{ACAD_REACTORS
330
1B34
102
}
330
1E
100
AcDbEntity
  8
図面
 62
     0
100
AcDbLine
 10
3178.118424870899
 20
285.1516224599562
 30
0.0
 11
3162.5184248709
 21
285.1516224599562
 31
0.0
  0
LINE
  5
1A76
102
{ACAD_REACTORS
330
1B34
102
}
330
1E
100
AcDbEntity
  8
図面
 62
     0
100
AcDbLine
 10
3179.3184248709
 20
299.5516224599563
 30
0.0
 11
3179.3184248709
 21
287.5516224599563
 31
0.0
  0
LINE
  5
1A77
102
{ACAD_REACTORS
330
1B34
102
}
330
1E
100
AcDbEntity
  8
図面
 62
     0
100
AcDbLine
 10
3161.318424870899
 20
299.5516224599563
 30
0.0
 11
3161.318424870899
 21
287.5516224599563
 31
0.0
  0
LINE
  5
1A78
102
{ACAD_REACTORS
330
1B34
102
}
330
1E
100
AcDbEntity
  8
図面
 62
     0
100
AcDbLine
 10
3179.018424870899
 20
287.2516224599562
 30
0.0
 11
3161.6184248709
 21
287.2516224599562
 31
0.0
  0
ARC
  5
1A79
102
{ACAD_REACTORS
330
1B34
102
}
330
1E
100
AcDbEntity
  8
図面
 62
     0
100
AcDbCircle
 10
3178.718424870899
 20
299.5516224599563
 30
0.0
 40
0.6
100
AcDbArc
 50
0.0
 51
90.0
  0
ARC
  5
1A7A
102
{ACAD_REACTORS
330
1B34
102
}
330
1E
100
AcDbEntity
  8
図面
 62
     0
100
AcDbCircle
 10
3161.9184248709
 20
299.5516224599563
 30
0.0
 40
0.6
100
AcDbArc
 50
90.0
 51
180.0
  0
LINE
  5
1A7B
102
{ACAD_REACTORS
330
1B34
102
}
330
1E
100
AcDbEntity
  8
図面
 62
     0
100
AcDbLine
 10
3179.018424870899
 20
287.2516224599562
 30
0.0
 11
3179.018424870899
 21
286.0516224599562
 31
0.0
  0
LINE
  5
1A7C
102
{ACAD_REACTORS
330
1B34
102
}
330
1E
100
AcDbEntity
  8
図面
 62
     0
100
AcDbLine
 10
3161.6184248709
 20
287.2516224599562
 30
0.0
 11
3161.6184248709
 21
286.0516224599562
 31
0.0
  0
ARC
  5
1A7D
102
{ACAD_REACTORS
330
1B34
102
}
330
1E
100
AcDbEntity
  8
図面
 62
     0
100
AcDbCircle
 10
3178.118424870899
 20
286.0516224599562
 30
0.0
 40
0.9000000000000005
100
AcDbArc
 50
270.0
 51
0.0
  0
ARC
  5
1A7E
102
{ACAD_REACTORS
330
1B34
102
}
330
1E
100
AcDbEntity
  8
図面
 62
     0
100
AcDbCircle
 10
3162.5184248709
 20
286.0516224599562
 30
0.0
 40
0.9000000000000005
100
AcDbArc
 50
180.0
 51
270.0
  0
LINE
  5
1A7F
102
{ACAD_REACTORS
330
1B34
102
}
330
1E
100
AcDbEntity
  8
図面
 62
     0
100
AcDbLine
 10
3179.3184248709
 20
295.3516224599561
 30
0.0
 11
3161.318424870899
 21
295.3516224599561
 31
0.0
  0
ARC
  5
1A80
102
{ACAD_REACTORS
330
1B34
102
}
330
1E
100
AcDbEntity
  8
図面
 62
     0
100
AcDbCircle
 10
3179.018424870899
 20
287.5516224599563
 30
0.0
 40
0.3000000000000001
100
AcDbArc
 50
270.0
 51
0.0
  0
ARC
  5
1A81
102
{ACAD_REACTORS
330
1B34
102
}
330
1E
100
AcDbEntity
  8
図面
 62
     0
100
AcDbCircle
 10
3161.6184248709
 20
287.5516224599563
 30
0.0
 40
0.3000000000000001
100
AcDbArc
 50
180.0
 51
270.0
  0
LINE
  5
1A82
102
{ACAD_REACTORS
330
1B34
102
}
330
1E
100
AcDbEntity
  8
図面
 62
     0
100
AcDbLine
 10
3170.6784248709
 20
295.3516224599561
 30
0.0
 11
3170.6784248709
 21
287.2516224599562
 31
0.0
  0
LINE
  5
1A83
102
{ACAD_REACTORS
330
1B34
102
}
330
1E
100
AcDbEntity
  8
図面
 62
     0
100
AcDbLine
 10
3171.398424870901
 20
295.3516224599561
 30
0.0
 11
3171.398424870901
 21
287.2516224599562
 31
0.0
  0
LINE
  5
1A84
102
{ACAD_REACTORS
330
1B34
102
}
330
1E
100
AcDbEntity
  8
図面
 62
     0
100
AcDbLine
 10
3172.118424870899
 20
295.3516224599561
 30
0.0
 11
3172.118424870899
 21
287.2516224599562
 31
0.0
  0
LINE
  5
1A85
102
{ACAD_REACTORS
330
1B34
102
}
330
1E
100
AcDbEntity
  8
図面
 62
     0
100
AcDbLine
 10
3172.8384248709
 20
295.3516224599561
 30
0.0
 11
3172.8384248709
 21
287.2516224599562
 31
0.0
  0
LINE
  5
1A86
102
{ACAD_REACTORS
330
1B34
102
}
330
1E
100
AcDbEntity
  8
図面
 62
     0
100
AcDbLine
 10
3173.558424870901
 20
295.3516224599561
 30
0.0
 11
3173.558424870901
 21
287.2516224599562
 31
0.0
  0
LINE
  5
1A87
102
{ACAD_REACTORS
330
1B34
102
}
330
1E
100
AcDbEntity
  8
図面
 62
     0
100
AcDbLine
 10
3174.2784248709
 20
295.3516224599561
 30
0.0
 11
3174.2784248709
 21
287.2516224599562
 31
0.0
  0
LINE
  5
1A88
102
{ACAD_REACTORS
330
1B34
102
}
330
1E
100
AcDbEntity
  8
図面
 62
     0
100
AcDbLine
 10
3174.9984248709
 20
295.3516224599561
 30
0.0
 11
3174.9984248709
 21
287.2516224599562
 31
0.0
  0
LINE
  5
1A89
102
{ACAD_REACTORS
330
1B34
102
}
330
1E
100
AcDbEntity
  8
図面
 62
     0
100
AcDbLine
 10
3175.7184248709
 20
295.3516224599561
 30
0.0
 11
3175.7184248709
 21
287.2516224599562
 31
0.0
  0
LINE
  5
1A8A
102
{ACAD_REACTORS
330
1B34
102
}
330
1E
100
AcDbEntity
  8
図面
 62
     0
100
AcDbLine
 10
3176.438424870899
 20
295.3516224599561
 30
0.0
 11
3176.438424870899
 21
287.2516224599562
 31
0.0
  0
LINE
  5
1A8B
102
{ACAD_REACTORS
330
1B34
102
}
330
1E
100
AcDbEntity
  8
図面
 62
     0
100
AcDbLine
 10
3177.158424870899
 20
295.3516224599561
 30
0.0
 11
3177.158424870899
 21
287.2516224599562
 31
0.0
  0
LINE
  5
1A8C
102
{ACAD_REACTORS
330
1B34
102
}
330
1E
100
AcDbEntity
  8
図面
 62
     0
100
AcDbLine
 10
3177.878424870901
 20
295.3516224599561
 30
0.0
 11
3177.878424870901
 21
287.2516224599562
 31
0.0
  0
LINE
  5
1A8D
102
{ACAD_REACTORS
330
1B34
102
}
330
1E
100
AcDbEntity
  8
図面
 62
     0
100
AcDbLine
 10
3178.5984248709
 20
295.3516224599561
 30
0.0
 11
3178.5984248709
 21
287.2516224599562
 31
0.0
  0
LINE
  5
1A8E
102
{ACAD_REACTORS
330
1B34
102
}
330
1E
100
AcDbEntity
  8
図面
 62
     0
100
AcDbLine
 10
3169.9584248709
 20
295.3516224599561
 30
0.0
 11
3169.9584248709
 21
287.2516224599562
 31
0.0
  0
LINE
  5
1A8F
102
{ACAD_REACTORS
330
1B34
102
}
330
1E
100
AcDbEntity
  8
図面
 62
     0
100
AcDbLine
 10
3169.2384248709
 20
295.3516224599561
 30
0.0
 11
3169.2384248709
 21
287.2516224599562
 31
0.0
  0
LINE
  5
1A90
102
{ACAD_REACTORS
330
1B34
102
}
330
1E
100
AcDbEntity
  8
図面
 62
     0
100
AcDbLine
 10
3168.518424870899
 20
295.3516224599561
 30
0.0
 11
3168.518424870899
 21
287.2516224599562
 31
0.0
  0
LINE
  5
1A91
102
{ACAD_REACTORS
330
1B34
102
}
330
1E
100
AcDbEntity
  8
図面
 62
     0
100
AcDbLine
 10
3167.798424870899
 20
295.3516224599561
 30
0.0
 11
3167.798424870899
 21
287.2516224599562
 31
0.0
  0
LINE
  5
1A92
102
{ACAD_REACTORS
330
1B34
102
}
330
1E
100
AcDbEntity
  8
図面
 62
     0
100
AcDbLine
 10
3167.078424870899
 20
295.3516224599561
 30
0.0
 11
3167.078424870899
 21
287.2516224599562
 31
0.0
  0
LINE
  5
1A93
102
{ACAD_REACTORS
330
1B34
102
}
330
1E
100
AcDbEntity
  8
図面
 62
     0
100
AcDbLine
 10
3166.3584248709
 20
295.3516224599561
 30
0.0
 11
3166.3584248709
 21
287.2516224599562
 31
0.0
  0
LINE
  5
1A94
102
{ACAD_REACTORS
330
1B34
102
}
330
1E
100
AcDbEntity
  8
図面
 62
     0
100
AcDbLine
 10
3165.638424870899
 20
295.3516224599561
 30
0.0
 11
3165.638424870899
 21
287.2516224599562
 31
0.0
  0
LINE
  5
1A95
102
{ACAD_REACTORS
330
1B34
102
}
330
1E
100
AcDbEntity
  8
図面
 62
     0
100
AcDbLine
 10
3164.9184248709
 20
295.3516224599561
 30
0.0
 11
3164.9184248709
 21
287.2516224599562
 31
0.0
  0
LINE
  5
1A96
102
{ACAD_REACTORS
330
1B34
102
}
330
1E
100
AcDbEntity
  8
図面
 62
     0
100
AcDbLine
 10
3164.1984248709
 20
295.3516224599561
 30
0.0
 11
3164.1984248709
 21
287.2516224599562
 31
0.0
  0
LINE
  5
1A97
102
{ACAD_REACTORS
330
1B34
102
}
330
1E
100
AcDbEntity
  8
図面
 62
     0
100
AcDbLine
 10
3163.478424870901
 20
295.3516224599561
 30
0.0
 11
3163.478424870901
 21
287.2516224599562
 31
0.0
  0
LINE
  5
1A98
102
{ACAD_REACTORS
330
1B34
102
}
330
1E
100
AcDbEntity
  8
図面
 62
     0
100
AcDbLine
 10
3162.7584248709
 20
295.3516224599561
 30
0.0
 11
3162.7584248709
 21
287.2516224599562
 31
0.0
  0
LINE
  5
1A99
102
{ACAD_REACTORS
330
1B34
102
}
330
1E
100
AcDbEntity
  8
図面
 62
     0
100
AcDbLine
 10
3162.038424870901
 20
295.3516224599561
 30
0.0
 11
3162.038424870901
 21
287.2516224599562
 31
0.0
  0
LINE
  5
1A9A
102
{ACAD_REACTORS
330
1B34
102
}
330
1E
100
AcDbEntity
  8
図面
 62
     0
100
AcDbLine
 10
3176.018424870899
 20
285.1516224599562
 30
0.0
 11
3176.018424870899
 21
275.9104681867685
 31
0.0
  0
LINE
  5
1A9B
102
{ACAD_REACTORS
330
1B34
102
}
330
1E
100
AcDbEntity
  8
図面
 62
     0
100
AcDbLine
 10
3164.618424870901
 20
285.1516224599562
 30
0.0
 11
3164.618424870901
 21
275.9104681867685
 31
0.0
  0
LINE
  5
1A9C
102
{ACAD_REACTORS
330
1B34
102
}
330
1E
100
AcDbEntity
  8
図面
 62
     0
100
AcDbLine
 10
3175.118424870899
 20
274.3516224599561
 30
0.0
 11
3165.518424870898
 21
274.3516224599561
 31
0.0
  0
LINE
  5
1A9D
102
{ACAD_REACTORS
330
1B34
102
}
330
1E
100
AcDbEntity
  8
図面
 62
     0
100
AcDbLine
 10
3175.118424870899
 20
274.3516224599561
 30
0.0
 11
3175.118424870899
 21
270.8742692026266
 31
0.0
  0
LINE
  5
1A9E
102
{ACAD_REACTORS
330
1B34
102
}
330
1E
100
AcDbEntity
  8
図面
 62
     0
100
AcDbLine
 10
3165.518424870898
 20
274.3516224599561
 30
0.0
 11
3165.518424870898
 21
270.8742692026266
 31
0.0
  0
LINE
  5
1A9F
102
{ACAD_REACTORS
330
1B34
102
}
330
1E
100
AcDbEntity
  8
図面
 62
     0
100
AcDbLine
 10
3175.7184248709
 20
275.3908529444974
 30
0.0
 11
3175.7184248709
 21
274.3516224599561
 31
0.0
  0
LINE
  5
1AA0
102
{ACAD_REACTORS
330
1B34
102
}
330
1E
100
AcDbEntity
  8
図面
 62
     0
100
AcDbLine
 10
3164.9184248709
 20
275.3908529444974
 30
0.0
 11
3164.9184248709
 21
274.3516224599561
 31
0.0
  0
LINE
  5
1AA1
102
{ACAD_REACTORS
330
1B34
102
}
330
1E
100
AcDbEntity
  8
図面
 62
     0
100
AcDbLine
 10
3175.609757581608
 20
270.8742692026266
 30
0.0
 11
3175.7184248709
 21
274.3516224599561
 31
0.0
  0
LINE
  5
1AA2
102
{ACAD_REACTORS
330
1B34
102
}
330
1E
100
AcDbEntity
  8
図面
 62
     0
100
AcDbLine
 10
3165.027092160191
 20
270.8742692026266
 30
0.0
 11
3164.9184248709
 21
274.3516224599561
 31
0.0
  0
LINE
  5
1AA3
102
{ACAD_REACTORS
330
1B34
102
}
330
1E
100
AcDbEntity
  8
図面
 62
     0
100
AcDbLine
 10
3175.118424870899
 20
274.3516224599561
 30
0.0
 11
3176.018424870899
 21
275.9104681867685
 31
0.0
  0
LINE
  5
1AA4
102
{ACAD_REACTORS
330
1B34
102
}
330
1E
100
AcDbEntity
  8
図面
 62
     0
100
AcDbLine
 10
3165.518424870898
 20
274.3516224599561
 30
0.0
 11
3164.618424870901
 21
275.9104681867685
 31
0.0
  0
LINE
  5
1AA5
102
{ACAD_REACTORS
330
1B34
102
}
330
1E
100
AcDbEntity
  8
図面
 62
     0
100
AcDbLine
 10
3176.018424870899
 20
275.9104681867685
 30
0.0
 11
3173.816996007806
 21
275.9104681867685
 31
0.0
  0
LINE
  5
1AA6
102
{ACAD_REACTORS
330
1B34
102
}
330
1E
100
AcDbEntity
  8
図面
 62
     0
100
AcDbLine
 10
3173.816996007806
 20
282.1516224599561
 30
0.0
 11
3166.819853733993
 21
282.1516224599561
 31
0.0
  0
LINE
  5
1AA7
102
{ACAD_REACTORS
330
1B34
102
}
330
1E
100
AcDbEntity
  8
図面
 62
     0
100
AcDbLine
 10
3173.816996007806
 20
275.9104681867685
 30
0.0
 11
3173.816996007806
 21
282.1516224599561
 31
0.0
  0
LINE
  5
1AA8
102
{ACAD_REACTORS
330
1B34
102
}
330
1E
100
AcDbEntity
  8
図面
 62
     0
100
AcDbLine
 10
3166.819853733993
 20
275.9104681867685
 30
0.0
 11
3166.819853733993
 21
282.1516224599561
 31
0.0
  0
LINE
  5
1AA9
102
{ACAD_REACTORS
330
1B34
102
}
330
1E
100
AcDbEntity
  8
図面
 62
     0
100
AcDbLine
 10
3166.819853733993
 20
282.1516224599561
 30
0.0
 11
3166.819853733993
 21
282.1516224599561
 31
0.0
  0
LINE
  5
1AAA
102
{ACAD_REACTORS
330
1B34
102
}
330
1E
100
AcDbEntity
  8
図面
 62
     0
100
AcDbLine
 10
3170.3184248709
 20
274.3516224599561
 30
0.0
 11
3173.816996007806
 21
275.9104681867685
 31
0.0
  0
LINE
  5
1AAB
102
{ACAD_REACTORS
330
1B34
102
}
330
1E
100
AcDbEntity
  8
図面
 62
     0
100
AcDbLine
 10
3166.819853733993
 20
275.9104681867685
 30
0.0
 11
3170.3184248709
 21
274.3516224599561
 31
0.0
  0
LINE
  5
1AAC
102
{ACAD_REACTORS
330
1B34
102
}
330
1E
100
AcDbEntity
  8
図面
 62
     0
100
AcDbLine
 10
3166.819853733993
 20
275.9104681867685
 30
0.0
 11
3164.618424870901
 21
275.9104681867685
 31
0.0
  0
LINE
  5
1AAD
102
{ACAD_REACTORS
330
1B34
102
}
330
1E
100
AcDbEntity
  8
図面
 62
     0
100
AcDbLine
 10
3177.2184248709
 20
308.5516224599563
 30
0.0
 11
3163.4184248709
 21
308.5516224599563
 31
0.0
  0
LINE
  5
1AAE
102
{ACAD_REACTORS
330
1B34
102
}
330
1E
100
AcDbEntity
  8
図面
 62
     0
100
AcDbLine
 10
3177.8184248709
 20
307.951622459956
 30
0.0
 11
3177.8184248709
 21
303.7516224599562
 31
0.0
  0
LINE
  5
1AAF
102
{ACAD_REACTORS
330
1B34
102
}
330
1E
100
AcDbEntity
  8
図面
 62
     0
100
AcDbLine
 10
3162.818424870899
 20
307.951622459956
 30
0.0
 11
3162.818424870899
 21
303.7516224599562
 31
0.0
  0
LINE
  5
1AB0
102
{ACAD_REACTORS
330
1B34
102
}
330
1E
100
AcDbEntity
  8
図面
 62
     0
100
AcDbLine
 10
3177.518424870898
 20
301.0516224599563
 30
0.0
 11
3163.1184248709
 21
301.0516224599563
 31
0.0
  0
LINE
  5
1AB1
102
{ACAD_REACTORS
330
1B34
102
}
330
1E
100
AcDbEntity
  8
図面
 62
     0
100
AcDbLine
 10
3177.2184248709
 20
308.5516224599563
 30
0.0
 11
3177.8184248709
 21
307.951622459956
 31
0.0
  0
LINE
  5
1AB2
102
{ACAD_REACTORS
330
1B34
102
}
330
1E
100
AcDbEntity
  8
図面
 62
     0
100
AcDbLine
 10
3163.4184248709
 20
308.5516224599563
 30
0.0
 11
3162.818424870899
 21
307.951622459956
 31
0.0
  0
LINE
  5
1AB3
102
{ACAD_REACTORS
330
1B34
102
}
330
1E
100
AcDbEntity
  8
図面
 62
     0
100
AcDbLine
 10
3177.8184248709
 20
307.951622459956
 30
0.0
 11
3162.818424870899
 21
307.951622459956
 31
0.0
  0
LINE
  5
1AB4
102
{ACAD_REACTORS
330
1B34
102
}
330
1E
100
AcDbEntity
  8
図面
 62
     0
100
AcDbLine
 10
3177.8184248709
 20
301.3516224599561
 30
0.0
 11
3177.518424870898
 21
301.0516224599563
 31
0.0
  0
LINE
  5
1AB5
102
{ACAD_REACTORS
330
1B34
102
}
330
1E
100
AcDbEntity
  8
図面
 62
     0
100
AcDbLine
 10
3163.1184248709
 20
301.0516224599563
 30
0.0
 11
3162.818424870899
 21
301.3516224599561
 31
0.0
  0
LINE
  5
1AB6
102
{ACAD_REACTORS
330
1B34
102
}
330
1E
100
AcDbEntity
  8
図面
 62
     0
100
AcDbLine
 10
3177.8184248709
 20
303.7516224599562
 30
0.0
 11
3162.818424870899
 21
303.7516224599562
 31
0.0
  0
LINE
  5
1AB7
102
{ACAD_REACTORS
330
1B34
102
}
330
1E
100
AcDbEntity
  8
図面
 62
     0
100
AcDbLine
 10
3170.6784248709
 20
307.951622459956
 30
0.0
 11
3170.6784248709
 21
303.7516224599562
 31
0.0
  0
LINE
  5
1AB8
102
{ACAD_REACTORS
330
1B34
102
}
330
1E
100
AcDbEntity
  8
図面
 62
     0
100
AcDbLine
 10
3171.398424870901
 20
307.951622459956
 30
0.0
 11
3171.398424870901
 21
303.7516224599562
 31
0.0
  0
LINE
  5
1AB9
102
{ACAD_REACTORS
330
1B34
102
}
330
1E
100
AcDbEntity
  8
図面
 62
     0
100
AcDbLine
 10
3172.118424870899
 20
307.951622459956
 30
0.0
 11
3172.118424870899
 21
303.7516224599562
 31
0.0
  0
LINE
  5
1ABA
102
{ACAD_REACTORS
330
1B34
102
}
330
1E
100
AcDbEntity
  8
図面
 62
     0
100
AcDbLine
 10
3172.8384248709
 20
307.951622459956
 30
0.0
 11
3172.8384248709
 21
303.7516224599562
 31
0.0
  0
LINE
  5
1ABB
102
{ACAD_REACTORS
330
1B34
102
}
330
1E
100
AcDbEntity
  8
図面
 62
     0
100
AcDbLine
 10
3173.558424870901
 20
307.951622459956
 30
0.0
 11
3173.558424870901
 21
303.7516224599562
 31
0.0
  0
LINE
  5
1ABC
102
{ACAD_REACTORS
330
1B34
102
}
330
1E
100
AcDbEntity
  8
図面
 62
     0
100
AcDbLine
 10
3169.9584248709
 20
307.951622459956
 30
0.0
 11
3169.9584248709
 21
303.7516224599562
 31
0.0
  0
LINE
  5
1ABD
102
{ACAD_REACTORS
330
1B34
102
}
330
1E
100
AcDbEntity
  8
図面
 62
     0
100
AcDbLine
 10
3169.2384248709
 20
307.951622459956
 30
0.0
 11
3169.2384248709
 21
303.7516224599562
 31
0.0
  0
LINE
  5
1ABE
102
{ACAD_REACTORS
330
1B34
102
}
330
1E
100
AcDbEntity
  8
図面
 62
     0
100
AcDbLine
 10
3168.518424870899
 20
307.951622459956
 30
0.0
 11
3168.518424870899
 21
303.7516224599562
 31
0.0
  0
LINE
  5
1ABF
102
{ACAD_REACTORS
330
1B34
102
}
330
1E
100
AcDbEntity
  8
図面
 62
     0
100
AcDbLine
 10
3167.798424870899
 20
307.951622459956
 30
0.0
 11
3167.798424870899
 21
303.7516224599562
 31
0.0
  0
LINE
  5
1AC0
102
{ACAD_REACTORS
330
1B34
102
}
330
1E
100
AcDbEntity
  8
図面
 62
     0
100
AcDbLine
 10
3167.078424870899
 20
307.951622459956
 30
0.0
 11
3167.078424870899
 21
303.7516224599562
 31
0.0
  0
LINE
  5
1AC1
102
{ACAD_REACTORS
330
1B34
102
}
330
1E
100
AcDbEntity
  8
図面
 62
     0
100
AcDbLine
 10
3166.3584248709
 20
307.951622459956
 30
0.0
 11
3166.3584248709
 21
303.7516224599562
 31
0.0
  0
LINE
  5
1AC2
102
{ACAD_REACTORS
330
1B34
102
}
330
1E
100
AcDbEntity
  8
図面
 62
     0
100
AcDbLine
 10
3165.638424870899
 20
307.951622459956
 30
0.0
 11
3165.638424870899
 21
303.7516224599562
 31
0.0
  0
LINE
  5
1AC3
102
{ACAD_REACTORS
330
1B34
102
}
330
1E
100
AcDbEntity
  8
図面
 62
     0
100
AcDbLine
 10
3164.9184248709
 20
307.951622459956
 30
0.0
 11
3164.9184248709
 21
303.7516224599562
 31
0.0
  0
LINE
  5
1AC4
102
{ACAD_REACTORS
330
1B34
102
}
330
1E
100
AcDbEntity
  8
図面
 62
     0
100
AcDbLine
 10
3164.1984248709
 20
307.951622459956
 30
0.0
 11
3164.1984248709
 21
303.7516224599562
 31
0.0
  0
LINE
  5
1AC5
102
{ACAD_REACTORS
330
1B34
102
}
330
1E
100
AcDbEntity
  8
図面
 62
     0
100
AcDbLine
 10
3174.2784248709
 20
307.951622459956
 30
0.0
 11
3174.2784248709
 21
303.7516224599562
 31
0.0
  0
LINE
  5
1AC6
102
{ACAD_REACTORS
330
1B34
102
}
330
1E
100
AcDbEntity
  8
図面
 62
     0
100
AcDbLine
 10
3174.9984248709
 20
307.951622459956
 30
0.0
 11
3174.9984248709
 21
303.7516224599562
 31
0.0
  0
LINE
  5
1AC7
102
{ACAD_REACTORS
330
1B34
102
}
330
1E
100
AcDbEntity
  8
図面
 62
     0
100
AcDbLine
 10
3175.7184248709
 20
307.951622459956
 30
0.0
 11
3175.7184248709
 21
303.7516224599562
 31
0.0
  0
LINE
  5
1AC8
102
{ACAD_REACTORS
330
1B34
102
}
330
1E
100
AcDbEntity
  8
図面
 62
     0
100
AcDbLine
 10
3176.438424870899
 20
307.951622459956
 30
0.0
 11
3176.438424870899
 21
303.7516224599562
 31
0.0
  0
LINE
  5
1AC9
102
{ACAD_REACTORS
330
1B34
102
}
330
1E
100
AcDbEntity
  8
図面
 62
     0
100
AcDbLine
 10
3177.0684248709
 20
301.0516224599563
 30
0.0
 11
3177.0684248709
 21
300.1516224599561
 31
0.0
  0
LINE
  5
1ACA
102
{ACAD_REACTORS
330
1B34
102
}
330
1E
100
AcDbEntity
  8
図面
 62
     0
100
AcDbLine
 10
3177.158424870899
 20
307.951622459956
 30
0.0
 11
3177.158424870899
 21
303.7516224599562
 31
0.0
  0
LINE
  5
1ACB
102
{ACAD_REACTORS
330
1B34
102
}
330
1E
100
AcDbEntity
  8
図面
 62
     0
100
AcDbLine
 10
3163.478424870901
 20
307.951622459956
 30
0.0
 11
3163.478424870901
 21
303.7516224599562
 31
0.0
  0
LINE
  5
1ACC
102
{ACAD_REACTORS
330
1B34
102
}
330
1E
100
AcDbEntity
  8
図面
 62
     0
100
AcDbLine
 10
3177.8184248709
 20
301.3516224599561
 30
0.0
 11
3162.818424870899
 21
301.3516224599561
 31
0.0
  0
LINE
  5
1ACD
102
{ACAD_REACTORS
330
1B34
102
}
330
1E
100
AcDbEntity
  8
図面
 62
     0
100
AcDbLine
 10
3163.568424870899
 20
301.0516224599563
 30
0.0
 11
3163.568424870899
 21
300.1516224599561
 31
0.0
  0
LINE
  5
1ACE
102
{ACAD_REACTORS
330
1B34
102
}
330
1E
100
AcDbEntity
  8
図面
 62
     0
100
AcDbLine
 10
3177.8184248709
 20
302.5516224599563
 30
0.0
 11
3162.818424870899
 21
302.5516224599563
 31
0.0
  0
LINE
  5
1ACF
102
{ACAD_REACTORS
330
1B34
102
}
330
1E
100
AcDbEntity
  8
図面
 62
     0
100
AcDbLine
 10
3177.518424870898
 20
303.7516224599562
 30
0.0
 11
3177.518424870898
 21
302.5516224599563
 31
0.0
  0
LINE
  5
1AD0
102
{ACAD_REACTORS
330
1B34
102
}
330
1E
100
AcDbEntity
  8
図面
 62
     0
100
AcDbLine
 10
3177.8184248709
 20
302.5516224599563
 30
0.0
 11
3177.8184248709
 21
301.3516224599561
 31
0.0
  0
LINE
  5
1AD1
102
{ACAD_REACTORS
330
1B34
102
}
330
1E
100
AcDbEntity
  8
図面
 62
     0
100
AcDbLine
 10
3163.1184248709
 20
303.7516224599562
 30
0.0
 11
3163.1184248709
 21
302.5516224599563
 31
0.0
  0
LINE
  5
1AD2
102
{ACAD_REACTORS
330
1B34
102
}
330
1E
100
AcDbEntity
  8
図面
 62
     0
100
AcDbLine
 10
3162.818424870899
 20
302.5516224599563
 30
0.0
 11
3162.818424870899
 21
301.3516224599561
 31
0.0
  0
LINE
  5
1AD3
102
{ACAD_REACTORS
330
1B33
102
}
330
1E
100
AcDbEntity
  8
005　中心線
100
AcDbLine
 10
2960.767665397355
 20
304.2453176284244
 30
0.0
 11
2960.767665397355
 21
240.5057083212896
 31
0.0
  0
LINE
  5
1AD4
102
{ACAD_REACTORS
330
1B33
102
}
330
1E
100
AcDbEntity
  8
図面
 62
     0
100
AcDbLine
 10
2966.767665397356
 20
266.001419576654
 30
0.0
 11
2954.767665397355
 21
266.001419576654
 31
0.0
  0
LINE
  5
1AD5
102
{ACAD_REACTORS
330
1B33
102
}
330
1E
100
AcDbEntity
  8
図面
 62
     0
100
AcDbLine
 10
2968.567665397356
 20
301.7014195766539
 30
0.0
 11
2952.967665397356
 21
301.7014195766539
 31
0.0
  0
LINE
  5
1AD6
102
{ACAD_REACTORS
330
1B33
102
}
330
1E
100
AcDbEntity
  8
図面
 62
     0
100
AcDbLine
 10
2969.167665397355
 20
280.7014195766539
 30
0.0
 11
2952.367665397357
 21
280.7014195766539
 31
0.0
  0
LINE
  5
1AD7
102
{ACAD_REACTORS
330
1B33
102
}
330
1E
100
AcDbEntity
  8
図面
 62
     0
100
AcDbLine
 10
2969.767665397356
 20
300.501419576654
 30
0.0
 11
2969.767665397356
 21
284.901419576654
 31
0.0
  0
LINE
  5
1AD8
102
{ACAD_REACTORS
330
1B33
102
}
330
1E
100
AcDbEntity
  8
図面
 62
     0
100
AcDbLine
 10
2951.767665397355
 20
300.501419576654
 30
0.0
 11
2951.767665397355
 21
284.901419576654
 31
0.0
  0
LINE
  5
1AD9
102
{ACAD_REACTORS
330
1B33
102
}
330
1E
100
AcDbEntity
  8
図面
 62
     0
100
AcDbLine
 10
2968.567665397356
 20
301.7014195766539
 30
0.0
 11
2969.767665397356
 21
300.501419576654
 31
0.0
  0
LINE
  5
1ADA
102
{ACAD_REACTORS
330
1B33
102
}
330
1E
100
AcDbEntity
  8
図面
 62
     0
100
AcDbLine
 10
2952.967665397356
 20
301.7014195766539
 30
0.0
 11
2951.767665397355
 21
300.501419576654
 31
0.0
  0
LINE
  5
1ADB
102
{ACAD_REACTORS
330
1B33
102
}
330
1E
100
AcDbEntity
  8
図面
 62
     0
100
AcDbLine
 10
2969.767665397356
 20
300.501419576654
 30
0.0
 11
2951.767665397355
 21
300.501419576654
 31
0.0
  0
LINE
  5
1ADC
102
{ACAD_REACTORS
330
1B33
102
}
330
1E
100
AcDbEntity
  8
図面
 62
     0
100
AcDbLine
 10
2969.767665397356
 20
292.401419576654
 30
0.0
 11
2951.767665397355
 21
292.401419576654
 31
0.0
  0
LINE
  5
1ADD
102
{ACAD_REACTORS
330
1B33
102
}
330
1E
100
AcDbEntity
  8
図面
 62
     0
100
AcDbLine
 10
2969.167665397355
 20
280.7014195766539
 30
0.0
 11
2969.767665397356
 21
281.301419576654
 31
0.0
  0
LINE
  5
1ADE
102
{ACAD_REACTORS
330
1B33
102
}
330
1E
100
AcDbEntity
  8
図面
 62
     0
100
AcDbLine
 10
2952.367665397357
 20
280.7014195766539
 30
0.0
 11
2951.767665397355
 21
281.301419576654
 31
0.0
  0
LINE
  5
1ADF
102
{ACAD_REACTORS
330
1B33
102
}
330
1E
100
AcDbEntity
  8
図面
 62
     0
100
AcDbLine
 10
2969.767665397356
 20
281.301419576654
 30
0.0
 11
2951.767665397355
 21
281.301419576654
 31
0.0
  0
LINE
  5
1AE0
102
{ACAD_REACTORS
330
1B33
102
}
330
1E
100
AcDbEntity
  8
図面
 62
     0
100
AcDbLine
 10
2969.767665397356
 20
283.701419576654
 30
0.0
 11
2951.767665397355
 21
283.701419576654
 31
0.0
  0
LINE
  5
1AE1
102
{ACAD_REACTORS
330
1B33
102
}
330
1E
100
AcDbEntity
  8
図面
 62
     0
100
AcDbLine
 10
2969.767665397356
 20
284.901419576654
 30
0.0
 11
2951.767665397355
 21
284.901419576654
 31
0.0
  0
LINE
  5
1AE2
102
{ACAD_REACTORS
330
1B33
102
}
330
1E
100
AcDbEntity
  8
図面
 62
     0
100
AcDbLine
 10
2969.167665397355
 20
284.901419576654
 30
0.0
 11
2969.167665397355
 21
283.701419576654
 31
0.0
  0
LINE
  5
1AE3
102
{ACAD_REACTORS
330
1B33
102
}
330
1E
100
AcDbEntity
  8
図面
 62
     0
100
AcDbLine
 10
2952.367665397357
 20
284.901419576654
 30
0.0
 11
2952.367665397357
 21
283.701419576654
 31
0.0
  0
LINE
  5
1AE4
102
{ACAD_REACTORS
330
1B33
102
}
330
1E
100
AcDbEntity
  8
図面
 62
     0
100
AcDbLine
 10
2969.767665397356
 20
283.701419576654
 30
0.0
 11
2969.767665397356
 21
281.301419576654
 31
0.0
  0
LINE
  5
1AE5
102
{ACAD_REACTORS
330
1B33
102
}
330
1E
100
AcDbEntity
  8
図面
 62
     0
100
AcDbLine
 10
2951.767665397355
 20
283.701419576654
 30
0.0
 11
2951.767665397355
 21
281.301419576654
 31
0.0
  0
LINE
  5
1AE6
102
{ACAD_REACTORS
330
1B33
102
}
330
1E
100
AcDbEntity
  8
図面
 62
     0
100
AcDbLine
 10
2961.127665397357
 20
300.501419576654
 30
0.0
 11
2961.127665397357
 21
292.401419576654
 31
0.0
  0
LINE
  5
1AE7
102
{ACAD_REACTORS
330
1B33
102
}
330
1E
100
AcDbEntity
  8
図面
 62
     0
100
AcDbLine
 10
2960.407665397357
 20
300.501419576654
 30
0.0
 11
2960.407665397357
 21
292.401419576654
 31
0.0
  0
LINE
  5
1AE8
102
{ACAD_REACTORS
330
1B33
102
}
330
1E
100
AcDbEntity
  8
図面
 62
     0
100
AcDbLine
 10
2961.847665397356
 20
300.501419576654
 30
0.0
 11
2961.847665397356
 21
292.401419576654
 31
0.0
  0
LINE
  5
1AE9
102
{ACAD_REACTORS
330
1B33
102
}
330
1E
100
AcDbEntity
  8
図面
 62
     0
100
AcDbLine
 10
2962.567665397357
 20
300.501419576654
 30
0.0
 11
2962.567665397357
 21
292.401419576654
 31
0.0
  0
LINE
  5
1AEA
102
{ACAD_REACTORS
330
1B33
102
}
330
1E
100
AcDbEntity
  8
図面
 62
     0
100
AcDbLine
 10
2963.287665397356
 20
300.501419576654
 30
0.0
 11
2963.287665397356
 21
292.401419576654
 31
0.0
  0
LINE
  5
1AEB
102
{ACAD_REACTORS
330
1B33
102
}
330
1E
100
AcDbEntity
  8
図面
 62
     0
100
AcDbLine
 10
2964.007665397357
 20
300.501419576654
 30
0.0
 11
2964.007665397357
 21
292.401419576654
 31
0.0
  0
LINE
  5
1AEC
102
{ACAD_REACTORS
330
1B33
102
}
330
1E
100
AcDbEntity
  8
図面
 62
     0
100
AcDbLine
 10
2964.727665397356
 20
300.501419576654
 30
0.0
 11
2964.727665397356
 21
292.401419576654
 31
0.0
  0
LINE
  5
1AED
102
{ACAD_REACTORS
330
1B33
102
}
330
1E
100
AcDbEntity
  8
図面
 62
     0
100
AcDbLine
 10
2965.447665397356
 20
300.501419576654
 30
0.0
 11
2965.447665397356
 21
292.401419576654
 31
0.0
  0
LINE
  5
1AEE
102
{ACAD_REACTORS
330
1B33
102
}
330
1E
100
AcDbEntity
  8
図面
 62
     0
100
AcDbLine
 10
2966.167665397355
 20
300.501419576654
 30
0.0
 11
2966.167665397355
 21
292.401419576654
 31
0.0
  0
LINE
  5
1AEF
102
{ACAD_REACTORS
330
1B33
102
}
330
1E
100
AcDbEntity
  8
図面
 62
     0
100
AcDbLine
 10
2966.887665397355
 20
300.501419576654
 30
0.0
 11
2966.887665397355
 21
292.401419576654
 31
0.0
  0
LINE
  5
1AF0
102
{ACAD_REACTORS
330
1B33
102
}
330
1E
100
AcDbEntity
  8
図面
 62
     0
100
AcDbLine
 10
2967.607665397356
 20
300.501419576654
 30
0.0
 11
2967.607665397356
 21
292.401419576654
 31
0.0
  0
LINE
  5
1AF1
102
{ACAD_REACTORS
330
1B33
102
}
330
1E
100
AcDbEntity
  8
図面
 62
     0
100
AcDbLine
 10
2968.327665397357
 20
300.501419576654
 30
0.0
 11
2968.327665397357
 21
292.401419576654
 31
0.0
  0
LINE
  5
1AF2
102
{ACAD_REACTORS
330
1B33
102
}
330
1E
100
AcDbEntity
  8
図面
 62
     0
100
AcDbLine
 10
2969.047665397356
 20
300.501419576654
 30
0.0
 11
2969.047665397356
 21
292.401419576654
 31
0.0
  0
LINE
  5
1AF3
102
{ACAD_REACTORS
330
1B33
102
}
330
1E
100
AcDbEntity
  8
図面
 62
     0
100
AcDbLine
 10
2959.687665397357
 20
300.501419576654
 30
0.0
 11
2959.687665397357
 21
292.401419576654
 31
0.0
  0
LINE
  5
1AF4
102
{ACAD_REACTORS
330
1B33
102
}
330
1E
100
AcDbEntity
  8
図面
 62
     0
100
AcDbLine
 10
2958.967665397356
 20
300.501419576654
 30
0.0
 11
2958.967665397356
 21
292.401419576654
 31
0.0
  0
LINE
  5
1AF5
102
{ACAD_REACTORS
330
1B33
102
}
330
1E
100
AcDbEntity
  8
図面
 62
     0
100
AcDbLine
 10
2958.247665397355
 20
300.501419576654
 30
0.0
 11
2958.247665397355
 21
292.401419576654
 31
0.0
  0
LINE
  5
1AF6
102
{ACAD_REACTORS
330
1B33
102
}
330
1E
100
AcDbEntity
  8
図面
 62
     0
100
AcDbLine
 10
2957.527665397356
 20
300.501419576654
 30
0.0
 11
2957.527665397356
 21
292.401419576654
 31
0.0
  0
LINE
  5
1AF7
102
{ACAD_REACTORS
330
1B33
102
}
330
1E
100
AcDbEntity
  8
図面
 62
     0
100
AcDbLine
 10
2956.807665397355
 20
300.501419576654
 30
0.0
 11
2956.807665397355
 21
292.401419576654
 31
0.0
  0
LINE
  5
1AF8
102
{ACAD_REACTORS
330
1B33
102
}
330
1E
100
AcDbEntity
  8
図面
 62
     0
100
AcDbLine
 10
2956.087665397355
 20
300.501419576654
 30
0.0
 11
2956.087665397355
 21
292.401419576654
 31
0.0
  0
LINE
  5
1AF9
102
{ACAD_REACTORS
330
1B33
102
}
330
1E
100
AcDbEntity
  8
図面
 62
     0
100
AcDbLine
 10
2955.367665397357
 20
300.501419576654
 30
0.0
 11
2955.367665397357
 21
292.401419576654
 31
0.0
  0
LINE
  5
1AFA
102
{ACAD_REACTORS
330
1B33
102
}
330
1E
100
AcDbEntity
  8
図面
 62
     0
100
AcDbLine
 10
2954.647665397356
 20
300.501419576654
 30
0.0
 11
2954.647665397356
 21
292.401419576654
 31
0.0
  0
LINE
  5
1AFB
102
{ACAD_REACTORS
330
1B33
102
}
330
1E
100
AcDbEntity
  8
図面
 62
     0
100
AcDbLine
 10
2953.927665397355
 20
300.501419576654
 30
0.0
 11
2953.927665397355
 21
292.401419576654
 31
0.0
  0
LINE
  5
1AFC
102
{ACAD_REACTORS
330
1B33
102
}
330
1E
100
AcDbEntity
  8
図面
 62
     0
100
AcDbLine
 10
2953.207665397356
 20
300.501419576654
 30
0.0
 11
2953.207665397356
 21
292.401419576654
 31
0.0
  0
LINE
  5
1AFD
102
{ACAD_REACTORS
330
1B33
102
}
330
1E
100
AcDbEntity
  8
図面
 62
     0
100
AcDbLine
 10
2952.487665397356
 20
300.501419576654
 30
0.0
 11
2952.487665397356
 21
292.401419576654
 31
0.0
  0
LINE
  5
1AFE
102
{ACAD_REACTORS
330
1B33
102
}
330
1E
100
AcDbEntity
  8
図面
 62
     0
100
AcDbLine
 10
2968.717665397356
 20
272.001419576654
 30
0.0
 11
2967.667665397355
 21
272.001419576654
 31
0.0
  0
LINE
  5
1AFF
102
{ACAD_REACTORS
330
1B33
102
}
330
1E
100
AcDbEntity
  8
図面
 62
     0
100
AcDbLine
 10
2969.167665397355
 20
280.401419576654
 30
0.0
 11
2969.167665397355
 21
272.4514195766539
 31
0.0
  0
LINE
  5
1B00
102
{ACAD_REACTORS
330
1B33
102
}
330
1E
100
AcDbEntity
  8
図面
 62
     0
100
AcDbLine
 10
2952.367665397357
 20
280.401419576654
 30
0.0
 11
2952.367665397357
 21
272.4514195766539
 31
0.0
  0
ARC
  5
1B01
102
{ACAD_REACTORS
330
1B33
102
}
330
1E
100
AcDbEntity
  8
図面
 62
     0
100
AcDbCircle
 10
2952.817665397356
 20
272.4514195766539
 30
0.0
 40
0.4499999999999997
100
AcDbArc
 50
180.0
 51
270.0
  0
ARC
  5
1B02
102
{ACAD_REACTORS
330
1B33
102
}
330
1E
100
AcDbEntity
  8
図面
 62
     0
100
AcDbCircle
 10
2968.717665397356
 20
272.4514195766539
 30
0.0
 40
0.45
100
AcDbArc
 50
270.0
 51
0.0
  0
LINE
  5
1B03
102
{ACAD_REACTORS
330
1B33
102
}
330
1E
100
AcDbEntity
  8
図面
 62
     0
100
AcDbLine
 10
2967.367665397356
 20
271.7014195766538
 30
0.0
 11
2967.367665397356
 21
266.6014195766538
 31
0.0
  0
LINE
  5
1B04
102
{ACAD_REACTORS
330
1B33
102
}
330
1E
100
AcDbEntity
  8
図面
 62
     0
100
AcDbLine
 10
2954.167665397355
 20
271.7014195766538
 30
0.0
 11
2954.167665397355
 21
266.6014195766538
 31
0.0
  0
ARC
  5
1B05
102
{ACAD_REACTORS
330
1B33
102
}
330
1E
100
AcDbEntity
  8
図面
 62
     0
100
AcDbCircle
 10
2967.667665397355
 20
271.7014195766538
 30
0.0
 40
0.3000000000000001
100
AcDbArc
 50
90.0
 51
180.0
  0
ARC
  5
1B06
102
{ACAD_REACTORS
330
1B33
102
}
330
1E
100
AcDbEntity
  8
図面
 62
     0
100
AcDbCircle
 10
2953.867665397357
 20
271.7014195766538
 30
0.0
 40
0.3
100
AcDbArc
 50
0.0
 51
90.0
  0
LINE
  5
1B07
102
{ACAD_REACTORS
330
1B33
102
}
330
1E
100
AcDbEntity
  8
図面
 62
     0
100
AcDbLine
 10
2952.817665397356
 20
272.001419576654
 30
0.0
 11
2967.667665397355
 21
272.001419576654
 31
0.0
  0
ARC
  5
1B08
102
{ACAD_REACTORS
330
1B33
102
}
330
1E
100
AcDbEntity
  8
図面
 62
     0
100
AcDbCircle
 10
2968.867665397356
 20
280.401419576654
 30
0.0
 40
0.2999999999999998
100
AcDbArc
 50
0.0
 51
90.0
  0
ARC
  5
1B09
102
{ACAD_REACTORS
330
1B33
102
}
330
1E
100
AcDbEntity
  8
図面
 62
     0
100
AcDbCircle
 10
2952.667665397356
 20
280.401419576654
 30
0.0
 40
0.3
100
AcDbArc
 50
90.0
 51
180.0
  0
LINE
  5
1B0A
102
{ACAD_REACTORS
330
1B33
102
}
330
1E
100
AcDbEntity
  8
図面
 62
     0
100
AcDbLine
 10
2965.267665397356
 20
279.2014195766538
 30
0.0
 11
2956.267665397355
 21
279.2014195766538
 31
0.0
  0
LINE
  5
1B0B
102
{ACAD_REACTORS
330
1B33
102
}
330
1E
100
AcDbEntity
  8
図面
 62
     0
100
AcDbLine
 10
2965.267665397356
 20
279.2014195766538
 30
0.0
 11
2965.267665397356
 21
272.001419576654
 31
0.0
  0
LINE
  5
1B0C
102
{ACAD_REACTORS
330
1B33
102
}
330
1E
100
AcDbEntity
  8
図面
 62
     0
100
AcDbLine
 10
2956.267665397355
 20
279.2014195766538
 30
0.0
 11
2956.267665397355
 21
272.001419576654
 31
0.0
  0
LINE
  5
1B0D
102
{ACAD_REACTORS
330
1B33
102
}
330
1E
100
AcDbEntity
  8
図面
 62
     0
100
AcDbLine
 10
2956.267665397355
 20
279.2014195766538
 30
0.0
 11
2965.267665397356
 21
272.001419576654
 31
0.0
  0
LINE
  5
1B0E
102
{ACAD_REACTORS
330
1B33
102
}
330
1E
100
AcDbEntity
  8
図面
 62
     0
100
AcDbLine
 10
2965.267665397356
 20
279.2014195766538
 30
0.0
 11
2956.267665397355
 21
272.001419576654
 31
0.0
  0
ARC
  5
1B0F
102
{ACAD_REACTORS
330
1B33
102
}
330
1E
100
AcDbEntity
  8
図面
 62
     0
100
AcDbCircle
 10
2966.767665397356
 20
266.6014195766538
 30
0.0
 40
0.6
100
AcDbArc
 50
270.0
 51
0.0
  0
ARC
  5
1B10
102
{ACAD_REACTORS
330
1B33
102
}
330
1E
100
AcDbEntity
  8
図面
 62
     0
100
AcDbCircle
 10
2954.767665397355
 20
266.6014195766538
 30
0.0
 40
0.6
100
AcDbArc
 50
180.0
 51
270.0
  0
LINE
  5
1B11
102
{ACAD_REACTORS
330
1B33
102
}
330
1E
100
AcDbEntity
  8
図面
 62
     0
100
AcDbLine
 10
2967.067665397357
 20
261.6209389720689
 30
0.0
 11
2954.467665397356
 21
261.6209389720689
 31
0.0
  0
LINE
  5
1B12
102
{ACAD_REACTORS
330
1B33
102
}
330
1E
100
AcDbEntity
  8
図面
 62
     0
100
AcDbLine
 10
2967.067665397357
 20
256.2209389720688
 30
0.0
 11
2954.467665397356
 21
256.2209389720688
 31
0.0
  0
LINE
  5
1B13
102
{ACAD_REACTORS
330
1B33
102
}
330
1E
100
AcDbEntity
  8
図面
 62
     0
100
AcDbLine
 10
2968.042278789146
 20
261.0582456679631
 30
0.0
 11
2968.042278789146
 21
256.7836322761733
 31
0.0
  0
LINE
  5
1B14
102
{ACAD_REACTORS
330
1B33
102
}
330
1E
100
AcDbEntity
  8
図面
 62
     0
100
AcDbLine
 10
2967.067665397357
 20
261.6209389720689
 30
0.0
 11
2968.042278789146
 21
261.0582456679631
 31
0.0
  0
LINE
  5
1B15
102
{ACAD_REACTORS
330
1B33
102
}
330
1E
100
AcDbEntity
  8
図面
 62
     0
100
AcDbLine
 10
2968.042278789146
 20
256.7836322761733
 30
0.0
 11
2967.067665397357
 21
256.2209389720688
 31
0.0
  0
LINE
  5
1B16
102
{ACAD_REACTORS
330
1B33
102
}
330
1E
100
AcDbEntity
  8
図面
 62
     0
100
AcDbLine
 10
2953.493052005568
 20
256.7836322761733
 30
0.0
 11
2954.467665397356
 21
256.2209389720688
 31
0.0
  0
LINE
  5
1B17
102
{ACAD_REACTORS
330
1B33
102
}
330
1E
100
AcDbEntity
  8
図面
 62
     0
100
AcDbLine
 10
2954.467665397356
 20
261.6209389720689
 30
0.0
 11
2953.493052005568
 21
261.0582456679631
 31
0.0
  0
LINE
  5
1B18
102
{ACAD_REACTORS
330
1B33
102
}
330
1E
100
AcDbEntity
  8
図面
 62
     0
100
AcDbLine
 10
2953.493052005568
 20
261.0582456679631
 30
0.0
 11
2953.493052005568
 21
256.7836322761733
 31
0.0
  0
LINE
  5
1B19
102
{ACAD_REACTORS
330
1B33
102
}
330
1E
100
AcDbEntity
  8
図面
 62
     0
100
AcDbLine
 10
2964.40497209325
 20
261.0582456679631
 30
0.0
 11
2964.40497209325
 21
256.7836322761733
 31
0.0
  0
LINE
  5
1B1A
102
{ACAD_REACTORS
330
1B33
102
}
330
1E
100
AcDbEntity
  8
図面
 62
     0
100
AcDbLine
 10
2957.130358701461
 20
261.0582456679631
 30
0.0
 11
2957.130358701461
 21
256.7836322761733
 31
0.0
  0
ARC
  5
1B1B
102
{ACAD_REACTORS
330
1B33
102
}
330
1E
100
AcDbEntity
  8
図面
 62
     0
100
AcDbCircle
 10
2960.767665397355
 20
249.5836322761733
 30
0.0
 40
12.03730669589439
100
AcDbArc
 50
72.41204622600903
 51
107.5879537739909
  0
ARC
  5
1B1C
102
{ACAD_REACTORS
330
1B33
102
}
330
1E
100
AcDbEntity
  8
図面
 62
     0
100
AcDbCircle
 10
2960.767665397355
 20
268.258245667963
 30
0.0
 40
12.03730669589439
100
AcDbArc
 50
252.412046226009
 51
287.587953773991
  0
ARC
  5
1B1D
102
{ACAD_REACTORS
330
1B33
102
}
330
1E
100
AcDbEntity
  8
図面
 62
     0
100
AcDbCircle
 10
2967.062799768783
 20
262.7792612225039
 30
0.0
 40
6.558324055343561
100
AcDbArc
 50
246.0925667717063
 51
270.0425078122276
  0
ARC
  5
1B1E
102
{ACAD_REACTORS
330
1B33
102
}
330
1E
100
AcDbEntity
  8
図面
 62
     0
100
AcDbCircle
 10
2967.062799768783
 20
255.0626167216333
 30
0.0
 40
6.558324055343561
100
AcDbArc
 50
89.95749218777239
 51
113.9074332282937
  0
ARC
  5
1B1F
102
{ACAD_REACTORS
330
1B33
102
}
330
1E
100
AcDbEntity
  8
図面
 62
     0
100
AcDbCircle
 10
2954.47253102593
 20
262.7792612225034
 30
0.0
 40
6.558324055343561
100
AcDbArc
 50
269.9574921877724
 51
293.9074332282937
  0
ARC
  5
1B20
102
{ACAD_REACTORS
330
1B33
102
}
330
1E
100
AcDbEntity
  8
図面
 62
     0
100
AcDbCircle
 10
2954.47253102593
 20
255.0626167216333
 30
0.0
 40
6.558324055343561
100
AcDbArc
 50
66.09256677170629
 51
90.04250781222763
  0
LINE
  5
1B21
102
{ACAD_REACTORS
330
1B33
102
}
330
1E
100
AcDbEntity
  8
図面
 62
     0
100
AcDbLine
 10
2965.867665397356
 20
256.2209389720688
 30
0.0
 11
2965.867665397356
 21
255.0209389720688
 31
0.0
  0
LINE
  5
1B22
102
{ACAD_REACTORS
330
1B33
102
}
330
1E
100
AcDbEntity
  8
図面
 62
     0
100
AcDbLine
 10
2955.667665397355
 20
256.2209389720688
 30
0.0
 11
2955.667665397355
 21
255.0209389720688
 31
0.0
  0
LINE
  5
1B23
102
{ACAD_REACTORS
330
1B33
102
}
330
1E
100
AcDbEntity
  8
図面
 62
     0
100
AcDbLine
 10
2965.267665397356
 20
255.0209389720688
 30
0.0
 11
2956.267665397355
 21
255.0209389720688
 31
0.0
  0
LINE
  5
1B24
102
{ACAD_REACTORS
330
1B33
102
}
330
1E
100
AcDbEntity
  8
図面
 62
     0
100
AcDbLine
 10
2965.867665397356
 20
255.0209389720688
 30
0.0
 11
2965.78251284444
 21
252.9772777020586
 31
0.0
  0
LINE
  5
1B25
102
{ACAD_REACTORS
330
1B33
102
}
330
1E
100
AcDbEntity
  8
図面
 62
     0
100
AcDbLine
 10
2955.667665397355
 20
255.0209389720688
 30
0.0
 11
2955.752817950272
 21
252.9772777020586
 31
0.0
  0
LINE
  5
1B26
102
{ACAD_REACTORS
330
1B33
102
}
330
1E
100
AcDbEntity
  8
図面
 62
     0
100
AcDbLine
 10
2956.267665397355
 20
255.0209389720688
 30
0.0
 11
2956.267665397355
 21
252.9772777020586
 31
0.0
  0
LINE
  5
1B27
102
{ACAD_REACTORS
330
1B33
102
}
330
1E
100
AcDbEntity
  8
図面
 62
     0
100
AcDbLine
 10
2956.267665397355
 20
255.0209389720688
 30
0.0
 11
2955.667665397355
 21
255.566388189654
 31
0.0
  0
LINE
  5
1B28
102
{ACAD_REACTORS
330
1B33
102
}
330
1E
100
AcDbEntity
  8
図面
 62
     0
100
AcDbLine
 10
2965.267665397356
 20
255.0209389720688
 30
0.0
 11
2965.267665397356
 21
252.9772777020586
 31
0.0
  0
LINE
  5
1B29
102
{ACAD_REACTORS
330
1B33
102
}
330
1E
100
AcDbEntity
  8
図面
 62
     0
100
AcDbLine
 10
2965.267665397356
 20
255.0209389720688
 30
0.0
 11
2965.867665397356
 21
255.5663881896535
 31
0.0
  0
LINE
  5
1B2A
102
{ACAD_REACTORS
330
1B33
102
}
330
1E
100
AcDbEntity
  8
図面
 62
     0
100
AcDbLine
 10
2965.867665397356
 20
262.8209389720688
 30
0.0
 11
2965.735145372165
 21
266.001419576654
 31
0.0
  0
LINE
  5
1B2B
102
{ACAD_REACTORS
330
1B33
102
}
330
1E
100
AcDbEntity
  8
図面
 62
     0
100
AcDbLine
 10
2955.667665397355
 20
262.8209389720688
 30
0.0
 11
2955.800185422546
 21
266.001419576654
 31
0.0
  0
LINE
  5
1B2C
102
{ACAD_REACTORS
330
1B33
102
}
330
1E
100
AcDbEntity
  8
図面
 62
     0
100
AcDbLine
 10
2955.667665397355
 20
261.6209389720689
 30
0.0
 11
2955.667665397355
 21
262.8209389720688
 31
0.0
  0
LINE
  5
1B2D
102
{ACAD_REACTORS
330
1B33
102
}
330
1E
100
AcDbEntity
  8
図面
 62
     0
100
AcDbLine
 10
2956.267665397355
 20
262.8209389720688
 30
0.0
 11
2955.667665397355
 21
262.275489754483
 31
0.0
  0
LINE
  5
1B2E
102
{ACAD_REACTORS
330
1B33
102
}
330
1E
100
AcDbEntity
  8
図面
 62
     0
100
AcDbLine
 10
2965.867665397356
 20
261.6209389720689
 30
0.0
 11
2965.867665397356
 21
262.8209389720688
 31
0.0
  0
LINE
  5
1B2F
102
{ACAD_REACTORS
330
1B33
102
}
330
1E
100
AcDbEntity
  8
図面
 62
     0
100
AcDbLine
 10
2965.267665397356
 20
262.8209389720688
 30
0.0
 11
2965.867665397356
 21
262.275489754483
 31
0.0
  0
LINE
  5
1B30
102
{ACAD_REACTORS
330
1B33
102
}
330
1E
100
AcDbEntity
  8
図面
 62
     0
100
AcDbLine
 10
2965.267665397356
 20
262.8209389720688
 30
0.0
 11
2956.267665397355
 21
262.8209389720688
 31
0.0
  0
LINE
  5
1B31
102
{ACAD_REACTORS
330
1B33
102
}
330
1E
100
AcDbEntity
  8
図面
 62
     0
100
AcDbLine
 10
2965.267665397356
 20
262.8209389720688
 30
0.0
 11
2965.267665397356
 21
266.001419576654
 31
0.0
  0
LINE
  5
1B32
102
{ACAD_REACTORS
330
1B33
102
}
330
1E
100
AcDbEntity
  8
図面
 62
     0
100
AcDbLine
 10
2956.267665397355
 20
262.8209389720688
 30
0.0
 11
2956.267665397355
 21
266.001419576654
 31
0.0
  0
DIMENSION
  5
1B35
330
1E
100
AcDbEntity
  8
寸法
  6
Continuous
100
AcDbDimension
280
     0
  2
*D34
 10
2771.391518447942
 20
209.9772777020587
 30
0.0
 11
2765.391518447942
 21
243.9772777020579
 31
0.0
 70
    32
 71
     5
 42
67.99999999999997
 73
     0
 74
     0
 75
     0
  3
Standard
100
AcDbAlignedDimension
 13
2717.599615397356
 23
277.9772777020586
 33
0.0
 14
2748.590617362884
 24
209.9772777020586
 34
0.0
 50
90.0
100
AcDbRotatedDimension
1001
ACAD
1000
DSTYLE
1002
{
1070
   340
1005
E35
1070
   343
1005
0
1070
   342
1005
0
1070
   173
1070
     1
1070
   344
1005
0
1002
}
  0
ENDSEC
  0
SECTION
  2
OBJECTS
  0
DICTIONARY
  5
C
330
0
100
AcDbDictionary
281
     1
  3
ACAD_ASSOCNETWORK
350
194E
  3
ACAD_CIP_PREVIOUS_PRODUCT_INFO
350
DDF
  3
ACAD_COLOR
350
DD5
  3
ACAD_DETAILVIEWSTYLE
350
D9C
  3
ACAD_GROUP
350
D
  3
ACAD_LAST_SAVED_VERSION_INFO
350
1C91
  3
ACAD_LAYOUT
350
19
  3
ACAD_MATERIAL
350
DA3
  3
ACAD_MLEADERSTYLE
350
DD8
  3
ACAD_MLINESTYLE
350
16
  3
ACAD_PLOTSETTINGS
350
18
  3
ACAD_PLOTSTYLENAME
350
E
  3
ACAD_RENDER_RAPIDRT_SETTINGS
350
1C82
  3
ACAD_SCALELIST
350
A35
  3
ACAD_SECTIONVIEWSTYLE
350
D9D
  3
ACAD_TABLESTYLE
350
DD6
  3
ACAD_VISUALSTYLE
350
DBC
  3
ACDB_RECOMPOSE_DATA
350
1C9E
  3
AcDbVariableDictionary
350
A80
  3
APPDATA
350
B41
  0
DICTIONARY
  5
BB7
330
2
100
AcDbDictionary
280
     1
281
     1
  3
ACAD_LAYERSTATES
360
BB8
  0
DICTIONARY
  5
A5E
330
10
100
AcDbDictionary
280
     1
281
     1
  3
ADSK_XREC_LAYER_RECONCILED
360
A5F
  0
DICTIONARY
  5
A60
330
2A
100
AcDbDictionary
280
     1
281
     1
  3
ADSK_XREC_LAYER_RECONCILED
360
A61
  0
DICTIONARY
  5
A62
330
30
100
AcDbDictionary
280
     1
281
     1
  3
ADSK_XREC_LAYER_RECONCILED
360
A63
  0
DICTIONARY
  5
A64
330
31
100
AcDbDictionary
280
     1
281
     1
  3
ADSK_XREC_LAYER_RECONCILED
360
A65
  0
DICTIONARY
  5
A66
330
32
100
AcDbDictionary
280
     1
281
     1
  3
ADSK_XREC_LAYER_RECONCILED
360
A67
  0
DICTIONARY
  5
A68
330
38
100
AcDbDictionary
280
     1
281
     1
  3
ADSK_XREC_LAYER_RECONCILED
360
A69
  0
DICTIONARY
  5
B4A
330
B49
100
AcDbDictionary
280
     1
281
     1
  3
ADSK_XREC_LAYER_RECONCILED
360
B4B
  0
DICTIONARY
  5
B4D
330
B4C
100
AcDbDictionary
280
     1
281
     1
  3
ADSK_XREC_LAYER_RECONCILED
360
B4E
  0
DICTIONARY
  5
E31
330
E30
100
AcDbDictionary
280
     1
281
     1
  0
DICTIONARY
  5
E34
330
E33
100
AcDbDictionary
280
     1
281
     1
  0
DICTIONARY
  5
D47
330
1E
100
AcDbDictionary
280
     1
281
     1
  3
ACAD_ASSOCNETWORK
360
194C
  3
DIM_BOUNDING_BOXES_V1
360
D48
  0
DICTIONARY
  5
194E
102
{ACAD_REACTORS
330
C
102
}
330
C
100
AcDbDictionary
281
     1
  3
ACAD_ASSOCNETWORK
350
194F
  0
XRECORD
  5
DDF
102
{ACAD_REACTORS
330
C
102
}
330
C
100
AcDbXrecord
280
     1
300
ACD
300
2024
300

  0
DICTIONARY
  5
DD5
102
{ACAD_REACTORS
330
C
102
}
330
C
100
AcDbDictionary
281
     1
  0
DICTIONARY
  5
D9C
102
{ACAD_REACTORS
330
C
102
}
330
C
100
AcDbDictionary
281
     1
  3
Imperial24
350
DDB
  0
DICTIONARY
  5
D
102
{ACAD_REACTORS
330
C
102
}
330
C
100
AcDbDictionary
281
     1
  3
*A1
350
1B33
  3
*A2
350
1B34
  0
XRECORD
  5
1C91
102
{ACAD_REACTORS
330
C
102
}
330
C
100
AcDbXrecord
280
     1
300
{04BC07A5-5D97-2143-B90F-411A88B9AC0C}
301
{C4A89310-7EE8-4F43-9EB5-3E0554D1B840}
302
{04BC07A5-5D97-2143-B90F-411A88B9AC0C}
303
F:\図面\ホームページ用図面(修正版)\図面\ジャッキ\複動式\20t\HM-2015.dxf
  0
DICTIONARY
  5
19
102
{ACAD_REACTORS
330
C
102
}
330
C
100
AcDbDictionary
281
     1
  3
Model
350
21
  3
ﾚｲｱｳﾄ1
350
1D
  0
DICTIONARY
  5
DA3
102
{ACAD_REACTORS
330
C
102
}
330
C
100
AcDbDictionary
281
     1
  3
ByBlock
350
DAC
  3
ByLayer
350
DA4
  3
Global
350
DB4
  0
DICTIONARY
  5
DD8
102
{ACAD_REACTORS
330
C
102
}
330
C
100
AcDbDictionary
281
     1
  3
Standard
350
DD9
  0
DICTIONARY
  5
16
102
{ACAD_REACTORS
330
C
102
}
330
C
100
AcDbDictionary
281
     1
  3
Standard
350
17
  0
DICTIONARY
  5
18
102
{ACAD_REACTORS
330
C
102
}
330
C
100
AcDbDictionary
281
     1
  0
ACDBDICTIONARYWDFLT
  5
E
102
{ACAD_REACTORS
330
C
102
}
330
C
100
AcDbDictionary
281
     1
  3
Normal
350
F
100
AcDbDictionaryWithDefault
340
F
  0
DICTIONARY
  5
1C82
102
{ACAD_REACTORS
330
C
102
}
330
C
100
AcDbDictionary
281
     1
  3
オーバーナイト品質
350
1C88
  3
コーヒー ブレイク品質
350
1C86
  3
ランチ タイム品質
350
1C87
  3
中
350
1C84
  3
低
350
1C83
  3
高
350
1C85
  0
DICTIONARY
  5
A35
102
{ACAD_REACTORS
330
C
102
}
330
C
100
AcDbDictionary
281
     1
  3
A0
350
A36
  3
A1
350
A37
  3
A2
350
A38
  3
A3
350
A39
  3
A4
350
A3A
  3
A5
350
A3B
  3
A6
350
A3C
  3
A7
350
A3D
  3
A8
350
A3E
  3
A9
350
A3F
  3
B0
350
A40
  3
B1
350
A41
  3
B2
350
A42
  3
B3
350
A43
  3
B4
350
A44
  3
B5
350
A45
  3
B6
350
A46
  3
B7
350
A47
  3
B8
350
A48
  3
B9
350
A49
  3
C0
350
A4A
  3
C1
350
A4B
  3
C2
350
A4C
  3
C3
350
A4D
  3
C4
350
A4E
  3
C5
350
A4F
  3
C6
350
A50
  3
C7
350
A51
  3
C8
350
A52
  3
C9
350
A53
  3
D0
350
A54
  3
D1
350
A55
  3
D2
350
A56
  0
DICTIONARY
  5
D9D
102
{ACAD_REACTORS
330
C
102
}
330
C
100
AcDbDictionary
281
     1
  3
Imperial24
350
DDA
  0
DICTIONARY
  5
DD6
102
{ACAD_REACTORS
330
C
102
}
330
C
100
AcDbDictionary
281
     1
  3
Standard
350
DD7
  0
DICTIONARY
  5
DBC
102
{ACAD_REACTORS
330
C
102
}
330
C
100
AcDbDictionary
281
     1
  3
2dWireframe
350
DC2
  3
Basic
350
DC1
  3
Brighten
350
DC8
  3
ColorChange
350
DCC
  3
Conceptual
350
DC5
  3
Dim
350
DC7
  3
EdgeColorOff
350
DD4
  3
Facepattern
350
DCB
  3
Flat
350
DBD
  3
FlatWithEdges
350
DBE
  3
Gouraud
350
DBF
  3
GouraudWithEdges
350
DC0
  3
Hidden
350
DC4
  3
JitterOff
350
DD2
  3
Linepattern
350
DCA
  3
OverhangOff
350
DD3
  3
Realistic
350
DC6
  3
Shaded
350
DD1
  3
Shaded with edges
350
DD0
  3
Shades of Gray
350
DCD
  3
Sketchy
350
DCE
  3
Thicken
350
DC9
  3
Wireframe
350
DC3
  3
X-Ray
350
DCF
  0
XRECORD
  5
1C9E
102
{ACAD_REACTORS
330
C
102
}
330
C
100
AcDbXrecord
280
     1
 90
        1
330
DD7
  0
DICTIONARY
  5
A80
102
{ACAD_REACTORS
330
C
102
}
330
C
100
AcDbDictionary
281
     1
  3
ANNOALLVISIBLE
350
1C97
  3
CANNOSCALE
350
1C98
  3
CMLEADERSTYLE
350
1C93
  3
CTABLESTYLE
350
1C92
  3
CVIEWDETAILSTYLE
350
1C94
  3
CVIEWSECTIONSTYLE
350
1C95
  3
DIMASSOC
350
A86
  3
INDEXCTL
350
A85
  3
LAYEREVAL
350
1C9A
  3
LAYERNOTIFY
350
1C9B
  3
LIGHTINGUNITS
350
1C99
  3
MSLTSCALE
350
1C96
  3
PROJECTNAME
350
B2D
  3
SORTENTS
350
A84
  0
DICTIONARY
  5
B41
102
{ACAD_REACTORS
330
C
102
}
330
C
100
AcDbDictionary
281
     1
  0
DICTIONARY
  5
BB8
102
{ACAD_REACTORS
330
BB7
102
}
330
BB7
100
AcDbDictionary
281
     1
  0
XRECORD
  5
A5F
102
{ACAD_REACTORS
330
A5E
102
}
330
A5E
100
AcDbXrecord
280
     1
290
     1
  0
XRECORD
  5
A61
102
{ACAD_REACTORS
330
A60
102
}
330
A60
100
AcDbXrecord
280
     1
290
     1
  0
XRECORD
  5
A63
102
{ACAD_REACTORS
330
A62
102
}
330
A62
100
AcDbXrecord
280
     1
290
     1
  0
XRECORD
  5
A65
102
{ACAD_REACTORS
330
A64
102
}
330
A64
100
AcDbXrecord
280
     1
290
     1
  0
XRECORD
  5
A67
102
{ACAD_REACTORS
330
A66
102
}
330
A66
100
AcDbXrecord
280
     1
290
     1
  0
XRECORD
  5
A69
102
{ACAD_REACTORS
330
A68
102
}
330
A68
100
AcDbXrecord
280
     1
290
     1
  0
XRECORD
  5
B4B
102
{ACAD_REACTORS
330
B4A
102
}
330
B4A
100
AcDbXrecord
280
     1
290
     1
  0
XRECORD
  5
B4E
102
{ACAD_REACTORS
330
B4D
102
}
330
B4D
100
AcDbXrecord
280
     1
290
     1
  0
DICTIONARY
  5
194C
102
{ACAD_REACTORS
330
D47
102
}
330
D47
100
AcDbDictionary
281
     1
  3
ACAD_ASSOCNETWORK
350
194D
  0
DICTIONARY
  5
D48
102
{ACAD_REACTORS
330
D47
102
}
330
D47
100
AcDbDictionary
281
     1
  0
ACDBASSOCNETWORK
  5
194F
102
{ACAD_REACTORS
330
194E
102
}
330
194E
100
AcDbAssocAction
 90
        2
 90
        0
330
0
360
0
 90
        0
 90
        0
 90
        0
 90
        0
 90
        0
 90
        0
 90
        0
100
AcDbAssocNetwork
 90
        0
 90
        1
 90
        1
330
194D
 90
        0
  0
ACDBDETAILVIEWSTYLE
  5
DDB
102
{ACAD_REACTORS
330
D9C
102
}
330
D9C
100
AcDbModelDocViewStyle
 70
     0
  3
Imperial24
290
     0
300
Imperial24
 90
        0
100
AcDbDetailViewStyle
 70
     0
 71
     0
 90
        3
 71
     1
340
11
 62
   256
 40
0.24
340
0
 62
   256
 40
0.24
300

 40
0.36
280
     3
 71
     2
340
15
 90
       25
 62
   256
 71
     3
340
11
 62
   256
 40
0.24
 90
        1
 40
0.75
 90
        1
300
%<\AcVar ViewType \f "%tc1">% %<\AcVar ViewDetailId>%\PSCALE %<\AcVar ViewScale \f "%sn">%
 71
     4
340
15
 90
       25
 62
   256
340
15
 90
       25
 62
   256
280
     0
  0
GROUP
  5
1B33
102
{ACAD_REACTORS
330
D
102
}
330
D
100
AcDbGroup
300

 70
     1
 71
     1
340
1B32
340
1B31
340
1B30
340
1B2F
340
1B2E
340
1B2D
340
1B2C
340
1B2B
340
1B2A
340
1B29
340
1B28
340
1B27
340
1B26
340
1B25
340
1B24
340
1B23
340
1B22
340
1B21
340
1B20
340
1B1F
340
1B1E
340
1B1D
340
1B1C
340
1B1B
340
1B1A
340
1B19
340
1B18
340
1B17
340
1B16
340
1B15
340
1B14
340
1B13
340
1B12
340
1B11
340
1B10
340
1B0F
340
1B0E
340
1B0D
340
1B0C
340
1B0B
340
1B0A
340
1B09
340
1B08
340
1B07
340
1B06
340
1B05
340
1B04
340
1B03
340
1B02
340
1B01
340
1B00
340
1AFF
340
1AFE
340
1AFD
340
1AFC
340
1AFB
340
1AFA
340
1AF9
340
1AF8
340
1AF7
340
1AF6
340
1AF5
340
1AF4
340
1AF3
340
1AF2
340
1AF1
340
1AF0
340
1AEF
340
1AEE
340
1AED
340
1AEC
340
1AEB
340
1AEA
340
1AE9
340
1AE8
340
1AE7
340
1AE6
340
1AE5
340
1AE4
340
1AE3
340
1AE2
340
1AE1
340
1AE0
340
1ADF
340
1ADE
340
1ADD
340
1ADC
340
1ADB
340
1ADA
340
1AD9
340
1AD8
340
1AD7
340
1AD6
340
1AD5
340
1AD4
340
1AD3
  0
GROUP
  5
1B34
102
{ACAD_REACTORS
330
D
102
}
330
D
100
AcDbGroup
300

 70
     1
 71
     1
340
1AD2
340
1AD1
340
1AD0
340
1ACF
340
1ACE
340
1ACD
340
1ACC
340
1ACB
340
1ACA
340
1AC9
340
1AC8
340
1AC7
340
1AC6
340
1AC5
340
1AC4
340
1AC3
340
1AC2
340
1AC1
340
1AC0
340
1ABF
340
1ABE
340
1ABD
340
1ABC
340
1ABB
340
1ABA
340
1AB9
340
1AB8
340
1AB7
340
1AB6
340
1AB5
340
1AB4
340
1AB3
340
1AB2
340
1AB1
340
1AB0
340
1AAF
340
1AAE
340
1AAD
340
1AAC
340
1AAB
340
1AAA
340
1AA9
340
1AA8
340
1AA7
340
1AA6
340
1AA5
340
1AA4
340
1AA3
340
1AA2
340
1AA1
340
1AA0
340
1A9F
340
1A9E
340
1A9D
340
1A9C
340
1A9B
340
1A9A
340
1A99
340
1A98
340
1A97
340
1A96
340
1A95
340
1A94
340
1A93
340
1A92
340
1A91
340
1A90
340
1A8F
340
1A8E
340
1A8D
340
1A8C
340
1A8B
340
1A8A
340
1A89
340
1A88
340
1A87
340
1A86
340
1A85
340
1A84
340
1A83
340
1A82
340
1A81
340
1A80
340
1A7F
340
1A7E
340
1A7D
340
1A7C
340
1A7B
340
1A7A
340
1A79
340
1A78
340
1A77
340
1A76
340
1A75
340
1A74
340
1A73
340
1A72
340
1A71
340
1A70
340
1A6F
340
1A6E
340
1A6D
340
1A6C
340
1A6B
340
1A6A
340
1A69
340
1A68
340
1A67
340
1A66
340
1A65
340
1A64
340
1A63
340
1A62
340
1A61
340
1A60
340
1A5F
340
1A5E
340
1A5D
340
1A5C
340
1A5B
  0
LAYOUT
  5
21
102
{ACAD_REACTORS
330
19
102
}
330
19
100
AcDbPlotSettings
  1

  2
DWG To PDF.pc3
  4
ISO_expand_A4_(210.00_x_297.00_MM)
  6

 40
5.0
 41
10.0
 42
5.0
 43
10.0
 44
210.0
 45
297.0
 46
3.060572983121687
 47
0.0
 48
0.0
 49
0.0
140
0.0
141
0.0
142
1.0
143
2.305702427269864
 70
 11828
 72
     1
 73
     1
 74
     1
  7
monochrome.ctb
 75
     0
147
0.4337073111312459
 76
     0
 77
     2
 78
   300
148
-2640.09338475419
149
-46.1880859253879
100
AcDbLayout
  1
Model
 70
     1
 71
     0
 10
0.0
 20
0.0
 11
12.0
 21
9.0
 12
0.0
 22
0.0
 32
0.0
 14
1030.168022462284
 24
-84.59988257000901
 34
0.0
 15
1794.656934521302
 25
455.94016031094
 35
0.0
146
0.0
 13
0.0
 23
0.0
 33
0.0
 16
1.0
 26
0.0
 36
0.0
 17
0.0
 27
1.0
 37
0.0
 76
     0
330
1E
331
B2E
1001
ACAD_PSEXT
1000
DWG To PDF.pc3
1000
DWG To PDF
1000
ファイル
1000

1070
     0
  0
LAYOUT
  5
1D
102
{ACAD_REACTORS
330
19
102
}
330
19
100
AcDbPlotSettings
  1

  2
\\Souko01\倉庫プリンタ
  4

  6

 40
0.0
 41
0.0
 42
0.0
 43
0.0
 44
0.0
 45
0.0
 46
0.0
 47
0.0
 48
0.0
 49
0.0
140
0.0
141
0.0
142
1.0
143
1.0
 70
   688
 72
     0
 73
     0
 74
     5
  7
monochrome.ctb
 75
    16
147
1.0
 76
     0
 77
     2
 78
   300
148
0.0
149
0.0
100
AcDbLayout
  1
ﾚｲｱｳﾄ1
 70
     1
 71
     1
 10
0.0
 20
0.0
 11
0.0
 21
0.0
 12
0.0
 22
0.0
 32
0.0
 14
1.000000000000000E+20
 24
1.000000000000000E+20
 34
1.000000000000000E+20
 15
-1.000000000000000E+20
 25
-1.000000000000000E+20
 35
-1.000000000000000E+20
146
0.0
 13
0.0
 23
0.0
 33
0.0
 16
1.0
 26
0.0
 36
0.0
 17
0.0
 27
1.0
 37
0.0
 76
     0
330
1A
  0
MATERIAL
  5
DAC
102
{ACAD_XDICTIONARY
360
DAD
102
}
102
{ACAD_REACTORS
330
DA3
102
}
330
DA3
100
AcDbMaterial
  1
ByBlock
 72
     0
 43
0.0208333333333333
 43
0.0
 43
0.0
 43
0.0
 43
0.0
 43
0.0208333333333333
 43
0.0
 43
0.0
 43
0.0
 43
0.0
 43
1.0
 43
0.0
 43
0.0
 43
0.0
 43
0.0
 43
1.0
 77
     0
 47
0.0208333333333333
 47
0.0
 47
0.0
 47
0.0
 47
0.0
 47
0.0208333333333333
 47
0.0
 47
0.0
 47
0.0
 47
0.0
 47
1.0
 47
0.0
 47
0.0
 47
0.0
 47
0.0
 47
1.0
171
     0
 49
0.0208333333333333
 49
0.0
 49
0.0
 49
0.0
 49
0.0
 49
0.0208333333333333
 49
0.0
 49
0.0
 49
0.0
 49
0.0
 49
1.0
 49
0.0
 49
0.0
 49
0.0
 49
0.0
 49
1.0
175
     0
142
0.0208333333333333
142
0.0
142
0.0
142
0.0
142
0.0
142
0.0208333333333333
142
0.0
142
0.0
142
0.0
142
0.0
142
1.0
142
0.0
142
0.0
142
0.0
142
0.0
142
1.0
179
     0
144
0.0208333333333333
144
0.0
144
0.0
144
0.0
144
0.0
144
0.0208333333333333
144
0.0
144
0.0
144
0.0
144
0.0
144
1.0
144
0.0
144
0.0
144
0.0
144
0.0
144
1.0
147
0.0208333333333333
147
0.0
147
0.0
147
0.0
147
0.0
147
0.0208333333333333
147
0.0
147
0.0
147
0.0
147
0.0
147
1.0
147
0.0
147
0.0
147
0.0
147
0.0
147
1.0
  0
MATERIAL
  5
DA4
102
{ACAD_XDICTIONARY
360
DA5
102
}
102
{ACAD_REACTORS
330
DA3
102
}
330
DA3
100
AcDbMaterial
  1
ByLayer
 72
     0
 43
0.0208333333333333
 43
0.0
 43
0.0
 43
0.0
 43
0.0
 43
0.0208333333333333
 43
0.0
 43
0.0
 43
0.0
 43
0.0
 43
1.0
 43
0.0
 43
0.0
 43
0.0
 43
0.0
 43
1.0
 77
     0
 47
0.0208333333333333
 47
0.0
 47
0.0
 47
0.0
 47
0.0
 47
0.0208333333333333
 47
0.0
 47
0.0
 47
0.0
 47
0.0
 47
1.0
 47
0.0
 47
0.0
 47
0.0
 47
0.0
 47
1.0
171
     0
 49
0.0208333333333333
 49
0.0
 49
0.0
 49
0.0
 49
0.0
 49
0.0208333333333333
 49
0.0
 49
0.0
 49
0.0
 49
0.0
 49
1.0
 49
0.0
 49
0.0
 49
0.0
 49
0.0
 49
1.0
175
     0
142
0.0208333333333333
142
0.0
142
0.0
142
0.0
142
0.0
142
0.0208333333333333
142
0.0
142
0.0
142
0.0
142
0.0
142
1.0
142
0.0
142
0.0
142
0.0
142
0.0
142
1.0
179
     0
144
0.0208333333333333
144
0.0
144
0.0
144
0.0
144
0.0
144
0.0208333333333333
144
0.0
144
0.0
144
0.0
144
0.0
144
1.0
144
0.0
144
0.0
144
0.0
144
0.0
144
1.0
147
0.0208333333333333
147
0.0
147
0.0
147
0.0
147
0.0
147
0.0208333333333333
147
0.0
147
0.0
147
0.0
147
0.0
147
1.0
147
0.0
147
0.0
147
0.0
147
0.0
147
1.0
  0
MATERIAL
  5
DB4
102
{ACAD_XDICTIONARY
360
DB5
102
}
102
{ACAD_REACTORS
330
DA3
102
}
330
DA3
100
AcDbMaterial
  1
Global
 72
     0
 43
0.0208333333333333
 43
0.0
 43
0.0
 43
0.0
 43
0.0
 43
0.0208333333333333
 43
0.0
 43
0.0
 43
0.0
 43
0.0
 43
1.0
 43
0.0
 43
0.0
 43
0.0
 43
0.0
 43
1.0
 77
     0
 47
0.0208333333333333
 47
0.0
 47
0.0
 47
0.0
 47
0.0
 47
0.0208333333333333
 47
0.0
 47
0.0
 47
0.0
 47
0.0
 47
1.0
 47
0.0
 47
0.0
 47
0.0
 47
0.0
 47
1.0
171
     0
 49
0.0208333333333333
 49
0.0
 49
0.0
 49
0.0
 49
0.0
 49
0.0208333333333333
 49
0.0
 49
0.0
 49
0.0
 49
0.0
 49
1.0
 49
0.0
 49
0.0
 49
0.0
 49
0.0
 49
1.0
175
     0
142
0.0208333333333333
142
0.0
142
0.0
142
0.0
142
0.0
142
0.0208333333333333
142
0.0
142
0.0
142
0.0
142
0.0
142
1.0
142
0.0
142
0.0
142
0.0
142
0.0
142
1.0
179
     0
144
0.0208333333333333
144
0.0
144
0.0
144
0.0
144
0.0
144
0.0208333333333333
144
0.0
144
0.0
144
0.0
144
0.0
144
1.0
144
0.0
144
0.0
144
0.0
144
0.0
144
1.0
147
0.0208333333333333
147
0.0
147
0.0
147
0.0
147
0.0
147
0.0208333333333333
147
0.0
147
0.0
147
0.0
147
0.0
147
1.0
147
0.0
147
0.0
147
0.0
147
0.0
147
1.0
  0
MLEADERSTYLE
  5
DD9
102
{ACAD_REACTORS
330
DD8
102
}
330
DD8
100
AcDbMLeaderStyle
179
     2
170
     2
171
     1
172
     0
 90
        2
 40
0.0
 41
0.0
173
     1
 91
-1056964608
340
13
 92
       -2
290
     1
 42
0.09
291
     1
 43
0.36
  3
Standard
 44
0.18
300

342
11
174
     1
178
     6
175
     1
176
     0
 93
-1056964608
 45
0.18
292
     0
297
     0
 46
0.18
 94
-1056964608
 47
1.0
 49
1.0
140
1.0
293
     1
141
0.0
294
     1
177
     0
142
1.0
295
     0
296
     0
143
0.125
271
     0
272
     9
273
     9
298
     0
  0
MLINESTYLE
  5
17
102
{ACAD_REACTORS
330
16
102
}
330
16
100
AcDbMlineStyle
  2
STANDARD
 70
     0
  3

 62
   256
 51
90.0
 52
90.0
 71
     2
 49
0.5
 62
   256
  6
BYLAYER
 49
-0.5
 62
   256
  6
BYLAYER
  0
ACDBPLACEHOLDER
  5
F
102
{ACAD_REACTORS
330
E
102
}
330
E
  0
RAPIDRTRENDERSETTINGS
  5
1C88
102
{ACAD_REACTORS
330
1C82
102
}
330
1C82
100
AcDbRenderSettings
 90
        2
  1
オーバーナイト品質
290
     1
290
     0
290
     1
290
     1
  1

  1
12 時間のレンダリング
 90
        5
100
AcDbRapidRTRenderSettings
 90
        3
 70
     1
 90
        1
 90
      720
 70
     2
 70
     2
 40
3.0
 40
3.0
290
     1
  0
RAPIDRTRENDERSETTINGS
  5
1C86
102
{ACAD_REACTORS
330
1C82
102
}
330
1C82
100
AcDbRenderSettings
 90
        2
  1
コーヒー ブレイク品質
290
     1
290
     0
290
     1
290
     1
  1

  1
10 分のレンダリング
 90
        3
100
AcDbRapidRTRenderSettings
 90
        3
 70
     1
 90
        1
 90
       10
 70
     1
 70
     2
 40
3.0
 40
3.0
290
     1
  0
RAPIDRTRENDERSETTINGS
  5
1C87
102
{ACAD_REACTORS
330
1C82
102
}
330
1C82
100
AcDbRenderSettings
 90
        2
  1
ランチ タイム品質
290
     1
290
     0
290
     1
290
     1
  1

  1
60 分のレンダリング
 90
        4
100
AcDbRapidRTRenderSettings
 90
        3
 70
     1
 90
        1
 90
       60
 70
     2
 70
     2
 40
3.0
 40
3.0
290
     1
  0
RAPIDRTRENDERSETTINGS
  5
1C84
102
{ACAD_REACTORS
330
1C82
102
}
330
1C82
100
AcDbRenderSettings
 90
        2
  1
中
290
     1
290
     0
290
     1
290
     1
  1

  1
5 レンダリング レベルを適用
 90
        1
100
AcDbRapidRTRenderSettings
 90
        3
 70
     0
 90
        5
 90
        1
 70
     1
 70
     2
 40
3.0
 40
3.0
290
     1
  0
RAPIDRTRENDERSETTINGS
  5
1C83
102
{ACAD_REACTORS
330
1C82
102
}
330
1C82
100
AcDbRenderSettings
 90
        2
  1
低
290
     1
290
     0
290
     1
290
     1
  1

  1
1 レンダリング レベルを適用
 90
        0
100
AcDbRapidRTRenderSettings
 90
        3
 70
     0
 90
        1
 90
        1
 70
     0
 70
     2
 40
3.0
 40
3.0
290
     1
  0
RAPIDRTRENDERSETTINGS
  5
1C85
102
{ACAD_REACTORS
330
1C82
102
}
330
1C82
100
AcDbRenderSettings
 90
        2
  1
高
290
     1
290
     0
290
     1
290
     1
  1

  1
10 レンダリング レベルを適用
 90
        2
100
AcDbRapidRTRenderSettings
 90
        3
 70
     0
 90
       10
 90
        1
 70
     2
 70
     2
 40
3.0
 40
3.0
290
     1
  0
SCALE
  5
A36
102
{ACAD_REACTORS
330
A35
102
}
330
A35
100
AcDbScale
 70
     0
300
1:1
140
1.0
141
1.0
290
     1
1001
ACAD
1000
AcRTDxfName
1000
SCALE
  0
SCALE
  5
A37
102
{ACAD_REACTORS
330
A35
102
}
330
A35
100
AcDbScale
 70
     0
300
1:2
140
1.0
141
2.0
290
     0
1001
ACAD
1000
AcRTDxfName
1000
SCALE
  0
SCALE
  5
A38
102
{ACAD_REACTORS
330
A35
102
}
330
A35
100
AcDbScale
 70
     0
300
1:4
140
1.0
141
4.0
290
     0
1001
ACAD
1000
AcRTDxfName
1000
SCALE
  0
SCALE
  5
A39
102
{ACAD_REACTORS
330
A35
102
}
330
A35
100
AcDbScale
 70
     0
300
1:5
140
1.0
141
5.0
290
     0
1001
ACAD
1000
AcRTDxfName
1000
SCALE
  0
SCALE
  5
A3A
102
{ACAD_REACTORS
330
A35
102
}
330
A35
100
AcDbScale
 70
     0
300
1:8
140
1.0
141
8.0
290
     0
1001
ACAD
1000
AcRTDxfName
1000
SCALE
  0
SCALE
  5
A3B
102
{ACAD_REACTORS
330
A35
102
}
330
A35
100
AcDbScale
 70
     0
300
1:10
140
1.0
141
10.0
290
     0
1001
ACAD
1000
AcRTDxfName
1000
SCALE
  0
SCALE
  5
A3C
102
{ACAD_REACTORS
330
A35
102
}
330
A35
100
AcDbScale
 70
     0
300
1:16
140
1.0
141
16.0
290
     0
1001
ACAD
1000
AcRTDxfName
1000
SCALE
  0
SCALE
  5
A3D
102
{ACAD_REACTORS
330
A35
102
}
330
A35
100
AcDbScale
 70
     0
300
1:20
140
1.0
141
20.0
290
     0
1001
ACAD
1000
AcRTDxfName
1000
SCALE
  0
SCALE
  5
A3E
102
{ACAD_REACTORS
330
A35
102
}
330
A35
100
AcDbScale
 70
     0
300
1:30
140
1.0
141
30.0
290
     0
1001
ACAD
1000
AcRTDxfName
1000
SCALE
  0
SCALE
  5
A3F
102
{ACAD_REACTORS
330
A35
102
}
330
A35
100
AcDbScale
 70
     0
300
1:40
140
1.0
141
40.0
290
     0
1001
ACAD
1000
AcRTDxfName
1000
SCALE
  0
SCALE
  5
A40
102
{ACAD_REACTORS
330
A35
102
}
330
A35
100
AcDbScale
 70
     0
300
1:50
140
1.0
141
50.0
290
     0
1001
ACAD
1000
AcRTDxfName
1000
SCALE
  0
SCALE
  5
A41
102
{ACAD_REACTORS
330
A35
102
}
330
A35
100
AcDbScale
 70
     0
300
1:100
140
1.0
141
100.0
290
     0
1001
ACAD
1000
AcRTDxfName
1000
SCALE
  0
SCALE
  5
A42
102
{ACAD_REACTORS
330
A35
102
}
330
A35
100
AcDbScale
 70
     0
300
2:1
140
2.0
141
1.0
290
     0
1001
ACAD
1000
AcRTDxfName
1000
SCALE
  0
SCALE
  5
A43
102
{ACAD_REACTORS
330
A35
102
}
330
A35
100
AcDbScale
 70
     0
300
4:1
140
4.0
141
1.0
290
     0
1001
ACAD
1000
AcRTDxfName
1000
SCALE
  0
SCALE
  5
A44
102
{ACAD_REACTORS
330
A35
102
}
330
A35
100
AcDbScale
 70
     0
300
8:1
140
8.0
141
1.0
290
     0
1001
ACAD
1000
AcRTDxfName
1000
SCALE
  0
SCALE
  5
A45
102
{ACAD_REACTORS
330
A35
102
}
330
A35
100
AcDbScale
 70
     0
300
10:1
140
10.0
141
1.0
290
     0
1001
ACAD
1000
AcRTDxfName
1000
SCALE
  0
SCALE
  5
A46
102
{ACAD_REACTORS
330
A35
102
}
330
A35
100
AcDbScale
 70
     0
300
100:1
140
100.0
141
1.0
290
     0
1001
ACAD
1000
AcRTDxfName
1000
SCALE
  0
SCALE
  5
A47
102
{ACAD_REACTORS
330
A35
102
}
330
A35
100
AcDbScale
 70
     0
300
1/128" = 1'-0"
140
0.0078125
141
12.0
290
     0
1001
ACAD
1000
AcRTDxfName
1000
SCALE
  0
SCALE
  5
A48
102
{ACAD_REACTORS
330
A35
102
}
330
A35
100
AcDbScale
 70
     0
300
1/64" = 1'-0"
140
0.015625
141
12.0
290
     0
1001
ACAD
1000
AcRTDxfName
1000
SCALE
  0
SCALE
  5
A49
102
{ACAD_REACTORS
330
A35
102
}
330
A35
100
AcDbScale
 70
     0
300
1/32" = 1'-0"
140
0.03125
141
12.0
290
     0
1001
ACAD
1000
AcRTDxfName
1000
SCALE
  0
SCALE
  5
A4A
102
{ACAD_REACTORS
330
A35
102
}
330
A35
100
AcDbScale
 70
     0
300
1/16" = 1'-0"
140
0.0625
141
12.0
290
     0
1001
ACAD
1000
AcRTDxfName
1000
SCALE
  0
SCALE
  5
A4B
102
{ACAD_REACTORS
330
A35
102
}
330
A35
100
AcDbScale
 70
     0
300
3/32" = 1'-0"
140
0.09375
141
12.0
290
     0
1001
ACAD
1000
AcRTDxfName
1000
SCALE
  0
SCALE
  5
A4C
102
{ACAD_REACTORS
330
A35
102
}
330
A35
100
AcDbScale
 70
     0
300
1/8" = 1'-0"
140
0.125
141
12.0
290
     0
1001
ACAD
1000
AcRTDxfName
1000
SCALE
  0
SCALE
  5
A4D
102
{ACAD_REACTORS
330
A35
102
}
330
A35
100
AcDbScale
 70
     0
300
3/16" = 1'-0"
140
0.1875
141
12.0
290
     0
1001
ACAD
1000
AcRTDxfName
1000
SCALE
  0
SCALE
  5
A4E
102
{ACAD_REACTORS
330
A35
102
}
330
A35
100
AcDbScale
 70
     0
300
1/4" = 1'-0"
140
0.25
141
12.0
290
     0
1001
ACAD
1000
AcRTDxfName
1000
SCALE
  0
SCALE
  5
A4F
102
{ACAD_REACTORS
330
A35
102
}
330
A35
100
AcDbScale
 70
     0
300
3/8" = 1'-0"
140
0.375
141
12.0
290
     0
1001
ACAD
1000
AcRTDxfName
1000
SCALE
  0
SCALE
  5
A50
102
{ACAD_REACTORS
330
A35
102
}
330
A35
100
AcDbScale
 70
     0
300
1/2" = 1'-0"
140
0.5
141
12.0
290
     0
1001
ACAD
1000
AcRTDxfName
1000
SCALE
  0
SCALE
  5
A51
102
{ACAD_REACTORS
330
A35
102
}
330
A35
100
AcDbScale
 70
     0
300
3/4" = 1'-0"
140
0.75
141
12.0
290
     0
1001
ACAD
1000
AcRTDxfName
1000
SCALE
  0
SCALE
  5
A52
102
{ACAD_REACTORS
330
A35
102
}
330
A35
100
AcDbScale
 70
     0
300
1" = 1'-0"
140
1.0
141
12.0
290
     0
1001
ACAD
1000
AcRTDxfName
1000
SCALE
  0
SCALE
  5
A53
102
{ACAD_REACTORS
330
A35
102
}
330
A35
100
AcDbScale
 70
     0
300
1-1/2" = 1'-0"
140
1.5
141
12.0
290
     0
1001
ACAD
1000
AcRTDxfName
1000
SCALE
  0
SCALE
  5
A54
102
{ACAD_REACTORS
330
A35
102
}
330
A35
100
AcDbScale
 70
     0
300
3" = 1'-0"
140
3.0
141
12.0
290
     0
1001
ACAD
1000
AcRTDxfName
1000
SCALE
  0
SCALE
  5
A55
102
{ACAD_REACTORS
330
A35
102
}
330
A35
100
AcDbScale
 70
     0
300
6" = 1'-0"
140
6.0
141
12.0
290
     0
1001
ACAD
1000
AcRTDxfName
1000
SCALE
  0
SCALE
  5
A56
102
{ACAD_REACTORS
330
A35
102
}
330
A35
100
AcDbScale
 70
     0
300
1'-0" = 1'-0"
140
12.0
141
12.0
290
     0
1001
ACAD
1000
AcRTDxfName
1000
SCALE
  0
ACDBSECTIONVIEWSTYLE
  5
DDA
102
{ACAD_REACTORS
330
D9D
102
}
330
D9D
100
AcDbModelDocViewStyle
 70
     0
  3
Imperial24
290
     0
300
Imperial24
 90
        0
100
AcDbSectionViewStyle
 70
     0
 71
     0
 90
       78
 71
     1
340
11
 62
   256
 40
0.24
340
0
340
0
 62
   256
 40
0.24
300
I, O, Q, S, X, Z
 40
0.48
 90
        3
 40
0.18
 90
        1
 71
     2
340
15
 90
       25
 62
   256
340
15
 90
       50
 62
   256
 40
0.24
 40
0.0
 40
0.24
 71
     3
340
11
 62
   256
 40
0.24
 90
        1
 40
0.75
 90
        1
300
%<\AcVar ViewType \f "%tc1">% %<\AcVar ViewSectionStartId>%-%<\AcVar ViewSectionEndId>%\PSCALE %<\AcVar ViewScale \f "%sn">%
 71
     4
 62
   256
 62
   257
300
ANSI31
 40
1.0
 90
        0
290
     0
290
     0
 90
        6
 40
0.0
 40
1.570796326794896
 40
0.2617993877991494
 40
1.308996938995747
 40
-0.2617993877991494
 40
1.832595714594046
  0
TABLESTYLE
  5
DD7
102
{ACAD_XDICTIONARY
360
1C9C
102
}
102
{ACAD_REACTORS
330
DD6
102
}
330
DD6
100
AcDbTableStyle
280
     0
  3
Standard
 70
     0
 71
     0
 40
0.06
 41
0.06
280
     0
281
     0
  7
STANDARD
140
0.18
170
     2
 62
     0
 63
     7
283
     0
 90
      512
 91
        0
  1

274
    -2
284
     1
 64
     0
275
    -2
285
     1
 65
     0
276
    -2
286
     1
 66
     0
277
    -2
287
     1
 67
     0
278
    -2
288
     1
 68
     0
279
    -2
289
     1
 69
     0
  7
STANDARD
140
0.25
170
     5
 62
     0
 63
     7
283
     0
 90
      512
 91
        0
  1

274
    -2
284
     1
 64
     0
275
    -2
285
     1
 65
     0
276
    -2
286
     1
 66
     0
277
    -2
287
     1
 67
     0
278
    -2
288
     1
 68
     0
279
    -2
289
     1
 69
     0
  7
STANDARD
140
0.18
170
     5
 62
     0
 63
     7
283
     0
 90
      512
 91
        0
  1

274
    -2
284
     1
 64
     0
275
    -2
285
     1
 65
     0
276
    -2
286
     1
 66
     0
277
    -2
287
     1
 67
     0
278
    -2
288
     1
 68
     0
279
    -2
289
     1
 69
     0
  0
VISUALSTYLE
  5
DC2
102
{ACAD_REACTORS
330
DBC
102
}
330
DBC
100
AcDbVisualStyle
  2
2dWireframe
 70
     4
177
     3
291
     0
 70
    58
 90
        0
176
     1
 90
        2
176
     1
 90
        0
176
     1
 90
        0
176
     1
 40
0.6
176
     1
 40
30.0
176
     1
 62
     7
420
 16777215
176
     1
 90
        1
176
     1
 90
        4
176
     1
 62
     7
176
     1
 62
   257
176
     1
 90
        1
176
     1
 90
        1
176
     1
 40
1.0
176
     1
 90
        0
176
     1
 62
   257
176
     1
 40
1.0
176
     1
 90
        1
176
     1
 90
        6
176
     1
 90
        2
176
     1
 62
     7
176
     1
 90
        5
176
     1
 90
        0
176
     1
 90
        0
176
     1
290
     0
176
     1
 90
        1
176
     1
 40
0.0
176
     1
 90
        0
176
     1
290
     1
176
     1
290
     1
176
     1
290
     0
176
     1
290
     0
176
     1
290
     0
176
     1
290
     0
176
     1
290
     0
176
     1
290
     0
176
     1
290
     0
176
     1
 90
       50
176
     1
 40
0.0
176
     1
 40
1.0
176
     1
 90
        0
176
     1
 62
    18
420
        0
176
     1
 90
       50
176
     1
 90
        3
176
     1
 62
     5
420
      255
176
     1
290
     0
176
     1
 90
       50
176
     1
 90
       50
176
     1
 90
       50
176
     1
290
     0
176
     1
 90
       50
176
     1
 62
   256
176
     0
 40
1.0
176
     0
 90
        2
176
     1
  1
strokes_ogs.tif
176
     1
290
     0
176
     1
 40
1.0
176
     1
 40
1.0
176
     1
  0
VISUALSTYLE
  5
DC1
102
{ACAD_REACTORS
330
DBC
102
}
330
DBC
100
AcDbVisualStyle
  2
Basic
 70
     7
177
     3
291
     1
 70
    58
 90
        1
176
     1
 90
        0
176
     1
 90
        1
176
     1
 90
        0
176
     1
 40
0.6
176
     1
 40
30.0
176
     1
 62
     7
420
 16777215
176
     1
 90
        0
176
     1
 90
        4
176
     1
 62
     7
176
     1
 62
   257
176
     1
 90
        1
176
     1
 90
        1
176
     1
 40
1.0
176
     1
 90
        8
176
     1
 62
     7
176
     1
 40
1.0
176
     1
 90
        1
176
     1
 90
        6
176
     1
 90
        2
176
     1
 62
     7
176
     1
 90
        5
176
     1
 90
        0
176
     1
 90
        0
176
     1
290
     0
176
     1
 90
        1
176
     1
 40
0.0
176
     1
 90
        0
176
     1
290
     0
176
     1
290
     1
176
     1
290
     1
176
     1
290
     0
176
     1
290
     0
176
     1
290
     0
176
     1
290
     0
176
     1
290
     0
176
     1
290
     0
176
     1
 90
       50
176
     1
 40
0.0
176
     1
 40
1.0
176
     1
 90
        0
176
     1
 62
    18
420
        0
176
     1
 90
       50
176
     1
 90
        3
176
     1
 62
     5
420
      255
176
     1
290
     0
176
     1
 90
       50
176
     1
 90
       50
176
     1
 90
       50
176
     1
290
     0
176
     1
 90
       50
176
     1
 62
   256
176
     0
 40
1.0
176
     0
 90
        2
176
     1
  1
strokes_ogs.tif
176
     1
290
     0
176
     1
 40
1.0
176
     1
 40
1.0
176
     1
  0
VISUALSTYLE
  5
DC8
102
{ACAD_REACTORS
330
DBC
102
}
330
DBC
100
AcDbVisualStyle
  2
Brighten
 70
    12
177
     3
291
     1
 70
    58
 90
        2
176
     1
 90
        2
176
     1
 90
        0
176
     1
 90
        0
176
     1
 40
0.6
176
     1
 40
30.0
176
     1
 62
     7
420
 16777215
176
     1
 90
        1
176
     1
 90
        4
176
     1
 62
     7
176
     1
 62
   257
176
     1
 90
        1
176
     1
 90
        1
176
     1
 40
1.0
176
     1
 90
        8
176
     1
 62
     7
176
     1
 40
1.0
176
     1
 90
        1
176
     1
 90
        6
176
     1
 90
        2
176
     1
 62
     7
176
     1
 90
        5
176
     1
 90
        0
176
     1
 90
        0
176
     1
290
     0
176
     1
 90
        1
176
     1
 40
50.0
176
     1
 90
        0
176
     1
290
     0
176
     1
290
     1
176
     1
290
     1
176
     1
290
     0
176
     1
290
     0
176
     1
290
     0
176
     1
290
     0
176
     1
290
     0
176
     1
290
     0
176
     1
 90
       50
176
     1
 40
0.0
176
     1
 40
1.0
176
     1
 90
        0
176
     1
 62
    18
420
        0
176
     1
 90
       50
176
     1
 90
        3
176
     1
 62
     5
420
      255
176
     1
290
     0
176
     1
 90
       50
176
     1
 90
       50
176
     1
 90
       50
176
     1
290
     0
176
     1
 90
       50
176
     1
 62
   256
176
     0
 40
1.0
176
     0
 90
        2
176
     1
  1
strokes_ogs.tif
176
     1
290
     0
176
     1
 40
1.0
176
     1
 40
1.0
176
     1
  0
VISUALSTYLE
  5
DCC
102
{ACAD_REACTORS
330
DBC
102
}
330
DBC
100
AcDbVisualStyle
  2
ColorChange
 70
    16
177
     3
291
     1
 70
    58
 90
        2
176
     1
 90
        2
176
     1
 90
        3
176
     1
 90
        0
176
     1
 40
0.6
176
     1
 40
30.0
176
     1
 62
     8
420
  8421504
176
     1
 90
        1
176
     1
 90
        4
176
     1
 62
     7
176
     1
 62
   257
176
     1
 90
        1
176
     1
 90
        1
176
     1
 40
1.0
176
     1
 90
        8
176
     1
 62
     8
420
  8421504
176
     1
 40
1.0
176
     1
 90
        1
176
     1
 90
        6
176
     1
 90
        2
176
     1
 62
     7
176
     1
 90
        5
176
     1
 90
        0
176
     1
 90
        0
176
     1
290
     0
176
     1
 90
        1
176
     1
 40
0.0
176
     1
 90
        0
176
     1
290
     0
176
     1
290
     1
176
     1
290
     1
176
     1
290
     0
176
     1
290
     0
176
     1
290
     0
176
     1
290
     0
176
     1
290
     0
176
     1
290
     0
176
     1
 90
       50
176
     1
 40
0.0
176
     1
 40
1.0
176
     1
 90
        0
176
     1
 62
    18
420
        0
176
     1
 90
       50
176
     1
 90
        3
176
     1
 62
     5
420
      255
176
     1
290
     0
176
     1
 90
       50
176
     1
 90
       50
176
     1
 90
       50
176
     1
290
     0
176
     1
 90
       50
176
     1
 62
   256
176
     0
 40
1.0
176
     0
 90
        2
176
     1
  1
strokes_ogs.tif
176
     1
290
     0
176
     1
 40
1.0
176
     1
 40
1.0
176
     1
  0
VISUALSTYLE
  5
DC5
102
{ACAD_REACTORS
330
DBC
102
}
330
DBC
100
AcDbVisualStyle
  2
Conceptual
 70
     9
177
     3
291
     0
 70
    58
 90
        3
176
     1
 90
        2
176
     1
 90
        0
176
     1
 90
        0
176
     1
 40
0.6
176
     1
 40
30.0
176
     1
 62
     7
420
 16777215
176
     1
 90
        2
176
     1
 90
        2
176
     1
 62
     7
176
     1
 62
   257
176
     1
 90
        1
176
     1
 90
        1
176
     1
 40
179.0
176
     1
 90
        8
176
     1
 62
     7
176
     1
 40
1.0
176
     1
 90
        1
176
     1
 90
        6
176
     1
 90
        2
176
     1
 62
     7
176
     1
 90
        3
176
     1
 90
        0
176
     1
 90
        0
176
     1
290
     0
176
     1
 90
        1
176
     1
 40
0.0
176
     1
 90
        0
176
     1
290
     0
176
     1
290
     1
176
     1
290
     1
176
     1
290
     0
176
     1
290
     0
176
     1
290
     0
176
     1
290
     0
176
     1
290
     0
176
     1
290
     0
176
     1
 90
       50
176
     1
 40
0.0
176
     1
 40
1.0
176
     1
 90
        0
176
     1
 62
    18
420
        0
176
     1
 90
       50
176
     1
 90
        3
176
     1
 62
     5
420
      255
176
     1
290
     0
176
     1
 90
       50
176
     1
 90
       50
176
     1
 90
       50
176
     1
290
     0
176
     1
 90
       50
176
     1
 62
   256
176
     0
 40
1.0
176
     0
 90
        2
176
     1
  1
strokes_ogs.tif
176
     1
290
     0
176
     1
 40
1.0
176
     1
 40
1.0
176
     1
  0
VISUALSTYLE
  5
DC7
102
{ACAD_REACTORS
330
DBC
102
}
330
DBC
100
AcDbVisualStyle
  2
Dim
 70
    11
177
     3
291
     1
 70
    58
 90
        2
176
     1
 90
        2
176
     1
 90
        0
176
     1
 90
        0
176
     1
 40
0.6
176
     1
 40
30.0
176
     1
 62
     7
420
 16777215
176
     1
 90
        1
176
     1
 90
        4
176
     1
 62
     7
176
     1
 62
   257
176
     1
 90
        1
176
     1
 90
        1
176
     1
 40
1.0
176
     1
 90
        8
176
     1
 62
     7
176
     1
 40
1.0
176
     1
 90
        1
176
     1
 90
        6
176
     1
 90
        2
176
     1
 62
     7
176
     1
 90
        5
176
     1
 90
        0
176
     1
 90
        0
176
     1
290
     0
176
     1
 90
        1
176
     1
 40
-50.0
176
     1
 90
        0
176
     1
290
     0
176
     1
290
     1
176
     1
290
     1
176
     1
290
     0
176
     1
290
     0
176
     1
290
     0
176
     1
290
     0
176
     1
290
     0
176
     1
290
     0
176
     1
 90
       50
176
     1
 40
0.0
176
     1
 40
1.0
176
     1
 90
        0
176
     1
 62
    18
420
        0
176
     1
 90
       50
176
     1
 90
        3
176
     1
 62
     5
420
      255
176
     1
290
     0
176
     1
 90
       50
176
     1
 90
       50
176
     1
 90
       50
176
     1
290
     0
176
     1
 90
       50
176
     1
 62
   256
176
     0
 40
1.0
176
     0
 90
        2
176
     1
  1
strokes_ogs.tif
176
     1
290
     0
176
     1
 40
1.0
176
     1
 40
1.0
176
     1
  0
VISUALSTYLE
  5
DD4
102
{ACAD_REACTORS
330
DBC
102
}
330
DBC
100
AcDbVisualStyle
  2
EdgeColorOff
 70
    22
177
     3
291
     1
 70
    58
 90
        2
176
     0
 90
        2
176
     0
 90
        0
176
     0
 90
        0
176
     0
 40
0.6
176
     0
 40
30.0
176
     0
 62
     7
420
 16777215
176
     0
 90
        1
176
     0
 90
        4
176
     0
 62
     7
176
     0
 62
   257
176
     0
 90
        1
176
     0
 90
        1
176
     0
 40
1.0
176
     0
 90
        8
176
     2
 62
     7
176
     0
 40
1.0
176
     0
 90
        1
176
     0
 90
        6
176
     0
 90
        2
176
     0
 62
     7
176
     0
 90
        5
176
     0
 90
        0
176
     0
 90
        0
176
     0
290
     0
176
     0
 90
        1
176
     0
 40
0.0
176
     0
 90
        0
176
     0
290
     0
176
     1
290
     1
176
     1
290
     1
176
     1
290
     0
176
     1
290
     0
176
     1
290
     0
176
     1
290
     0
176
     1
290
     0
176
     1
290
     0
176
     1
 90
       50
176
     0
 40
0.0
176
     0
 40
1.0
176
     0
 90
        0
176
     0
 62
    18
420
        0
176
     0
 90
       50
176
     0
 90
        3
176
     0
 62
     5
420
      255
176
     0
290
     0
176
     1
 90
       50
176
     0
 90
       50
176
     0
 90
       50
176
     0
290
     0
176
     1
 90
       50
176
     0
 62
   256
176
     0
 40
1.0
176
     0
 90
        2
176
     0
  1
strokes_ogs.tif
176
     0
290
     0
176
     1
 40
1.0
176
     0
 40
1.0
176
     0
  0
VISUALSTYLE
  5
DCB
102
{ACAD_REACTORS
330
DBC
102
}
330
DBC
100
AcDbVisualStyle
  2
Facepattern
 70
    15
177
     3
291
     1
 70
    58
 90
        2
176
     1
 90
        2
176
     1
 90
        0
176
     1
 90
        0
176
     1
 40
0.6
176
     1
 40
30.0
176
     1
 62
     7
420
 16777215
176
     1
 90
        1
176
     1
 90
        4
176
     1
 62
     7
176
     1
 62
   257
176
     1
 90
        1
176
     1
 90
        1
176
     1
 40
1.0
176
     1
 90
        8
176
     1
 62
     7
176
     1
 40
1.0
176
     1
 90
        1
176
     1
 90
        6
176
     1
 90
        2
176
     1
 62
     7
176
     1
 90
        5
176
     1
 90
        0
176
     1
 90
        0
176
     1
290
     0
176
     1
 90
        1
176
     1
 40
0.0
176
     1
 90
        0
176
     1
290
     0
176
     1
290
     1
176
     1
290
     1
176
     1
290
     0
176
     1
290
     0
176
     1
290
     0
176
     1
290
     0
176
     1
290
     0
176
     1
290
     0
176
     1
 90
       50
176
     1
 40
0.0
176
     1
 40
1.0
176
     1
 90
        0
176
     1
 62
    18
420
        0
176
     1
 90
       50
176
     1
 90
        3
176
     1
 62
     5
420
      255
176
     1
290
     0
176
     1
 90
       50
176
     1
 90
       50
176
     1
 90
       50
176
     1
290
     0
176
     1
 90
       50
176
     1
 62
   256
176
     0
 40
1.0
176
     0
 90
        2
176
     1
  1
strokes_ogs.tif
176
     1
290
     0
176
     1
 40
1.0
176
     1
 40
1.0
176
     1
  0
VISUALSTYLE
  5
DBD
102
{ACAD_REACTORS
330
DBC
102
}
330
DBC
100
AcDbVisualStyle
  2
Flat
 70
     0
177
     3
291
     1
 70
    58
 90
        2
176
     1
 90
        1
176
     1
 90
        1
176
     1
 90
        2
176
     1
 40
0.6
176
     1
 40
30.0
176
     1
 62
     7
420
 16777215
176
     1
 90
        0
176
     1
 90
        0
176
     1
 62
     7
176
     1
 62
   257
176
     1
 90
        1
176
     1
 90
        1
176
     1
 40
1.0
176
     1
 90
        8
176
     1
 62
     7
176
     1
 40
1.0
176
     1
 90
        1
176
     1
 90
        6
176
     1
 90
        2
176
     1
 62
     7
176
     1
 90
        5
176
     1
 90
        0
176
     1
 90
        0
176
     1
290
     0
176
     1
 90
       13
176
     1
 40
0.0
176
     1
 90
        0
176
     1
290
     0
176
     1
290
     1
176
     1
290
     1
176
     1
290
     0
176
     1
290
     0
176
     1
290
     0
176
     1
290
     0
176
     1
290
     0
176
     1
290
     0
176
     1
 90
       50
176
     1
 40
0.0
176
     1
 40
1.0
176
     1
 90
        0
176
     1
 62
    18
420
        0
176
     1
 90
       50
176
     1
 90
        3
176
     1
 62
     5
420
      255
176
     1
290
     0
176
     1
 90
       50
176
     1
 90
       50
176
     1
 90
       50
176
     1
290
     0
176
     1
 90
       50
176
     1
 62
   256
176
     0
 40
1.0
176
     0
 90
        2
176
     1
  1
strokes_ogs.tif
176
     1
290
     0
176
     1
 40
1.0
176
     1
 40
1.0
176
     1
  0
VISUALSTYLE
  5
DBE
102
{ACAD_REACTORS
330
DBC
102
}
330
DBC
100
AcDbVisualStyle
  2
FlatWithEdges
 70
     1
177
     3
291
     1
 70
    58
 90
        2
176
     1
 90
        1
176
     1
 90
        1
176
     1
 90
        2
176
     1
 40
0.6
176
     1
 40
30.0
176
     1
 62
     7
420
 16777215
176
     1
 90
        1
176
     1
 90
        0
176
     1
 62
     7
176
     1
 62
   257
176
     1
 90
        1
176
     1
 90
        1
176
     1
 40
1.0
176
     1
 90
        0
176
     1
 62
   257
176
     1
 40
1.0
176
     1
 90
        1
176
     1
 90
        6
176
     1
 90
        2
176
     1
 62
     7
176
     1
 90
        5
176
     1
 90
        0
176
     1
 90
        0
176
     1
290
     0
176
     1
 90
       13
176
     1
 40
0.0
176
     1
 90
        0
176
     1
290
     0
176
     1
290
     1
176
     1
290
     1
176
     1
290
     0
176
     1
290
     0
176
     1
290
     0
176
     1
290
     0
176
     1
290
     0
176
     1
290
     0
176
     1
 90
       50
176
     1
 40
0.0
176
     1
 40
1.0
176
     1
 90
        0
176
     1
 62
    18
420
        0
176
     1
 90
       50
176
     1
 90
        3
176
     1
 62
     5
420
      255
176
     1
290
     0
176
     1
 90
       50
176
     1
 90
       50
176
     1
 90
       50
176
     1
290
     0
176
     1
 90
       50
176
     1
 62
   256
176
     0
 40
1.0
176
     0
 90
        2
176
     1
  1
strokes_ogs.tif
176
     1
290
     0
176
     1
 40
1.0
176
     1
 40
1.0
176
     1
  0
VISUALSTYLE
  5
DBF
102
{ACAD_REACTORS
330
DBC
102
}
330
DBC
100
AcDbVisualStyle
  2
Gouraud
 70
     2
177
     3
291
     1
 70
    58
 90
        2
176
     1
 90
        2
176
     1
 90
        1
176
     1
 90
        2
176
     1
 40
0.6
176
     1
 40
30.0
176
     1
 62
     7
420
 16777215
176
     1
 90
        0
176
     1
 90
        0
176
     1
 62
     7
176
     1
 62
   257
176
     1
 90
        1
176
     1
 90
        1
176
     1
 40
1.0
176
     1
 90
        0
176
     1
 62
     7
176
     1
 40
1.0
176
     1
 90
        1
176
     1
 90
        6
176
     1
 90
        2
176
     1
 62
     7
176
     1
 90
        5
176
     1
 90
        0
176
     1
 90
        0
176
     1
290
     0
176
     1
 90
       13
176
     1
 40
0.0
176
     1
 90
        0
176
     1
290
     0
176
     1
290
     1
176
     1
290
     1
176
     1
290
     0
176
     1
290
     0
176
     1
290
     0
176
     1
290
     0
176
     1
290
     0
176
     1
290
     0
176
     1
 90
       50
176
     1
 40
0.0
176
     1
 40
1.0
176
     1
 90
        0
176
     1
 62
    18
420
        0
176
     1
 90
       50
176
     1
 90
        3
176
     1
 62
     5
420
      255
176
     1
290
     0
176
     1
 90
       50
176
     1
 90
       50
176
     1
 90
       50
176
     1
290
     0
176
     1
 90
       50
176
     1
 62
   256
176
     0
 40
1.0
176
     0
 90
        2
176
     1
  1
strokes_ogs.tif
176
     1
290
     0
176
     1
 40
1.0
176
     1
 40
1.0
176
     1
  0
VISUALSTYLE
  5
DC0
102
{ACAD_REACTORS
330
DBC
102
}
330
DBC
100
AcDbVisualStyle
  2
GouraudWithEdges
 70
     3
177
     3
291
     1
 70
    58
 90
        2
176
     1
 90
        2
176
     1
 90
        1
176
     1
 90
        2
176
     1
 40
0.6
176
     1
 40
30.0
176
     1
 62
     7
420
 16777215
176
     1
 90
        1
176
     1
 90
        0
176
     1
 62
     7
176
     1
 62
   257
176
     1
 90
        1
176
     1
 90
        1
176
     1
 40
1.0
176
     1
 90
        0
176
     1
 62
   257
176
     1
 40
1.0
176
     1
 90
        1
176
     1
 90
        6
176
     1
 90
        2
176
     1
 62
     7
176
     1
 90
        5
176
     1
 90
        0
176
     1
 90
        0
176
     1
290
     0
176
     1
 90
       13
176
     1
 40
0.0
176
     1
 90
        0
176
     1
290
     0
176
     1
290
     1
176
     1
290
     1
176
     1
290
     0
176
     1
290
     0
176
     1
290
     0
176
     1
290
     0
176
     1
290
     0
176
     1
290
     0
176
     1
 90
       50
176
     1
 40
0.0
176
     1
 40
1.0
176
     1
 90
        0
176
     1
 62
    18
420
        0
176
     1
 90
       50
176
     1
 90
        3
176
     1
 62
     5
420
      255
176
     1
290
     0
176
     1
 90
       50
176
     1
 90
       50
176
     1
 90
       50
176
     1
290
     0
176
     1
 90
       50
176
     1
 62
   256
176
     0
 40
1.0
176
     0
 90
        2
176
     1
  1
strokes_ogs.tif
176
     1
290
     0
176
     1
 40
1.0
176
     1
 40
1.0
176
     1
  0
VISUALSTYLE
  5
DC4
102
{ACAD_REACTORS
330
DBC
102
}
330
DBC
100
AcDbVisualStyle
  2
Hidden
 70
     6
177
     3
291
     0
 70
    58
 90
        1
176
     1
 90
        2
176
     1
 90
        2
176
     1
 90
        0
176
     1
 40
0.6
176
     1
 40
30.0
176
     1
 62
     7
420
 16777215
176
     1
 90
        2
176
     1
 90
        2
176
     1
 62
     7
176
     1
 62
   257
176
     1
 90
        2
176
     1
 90
        1
176
     1
 40
40.0
176
     1
 90
        0
176
     1
 62
   257
176
     1
 40
1.0
176
     1
 90
        1
176
     1
 90
        6
176
     1
 90
        2
176
     1
 62
     7
176
     1
 90
        3
176
     1
 90
        0
176
     1
 90
        0
176
     1
290
     0
176
     1
 90
        1
176
     1
 40
0.0
176
     1
 90
        0
176
     1
290
     0
176
     1
290
     1
176
     1
290
     1
176
     1
290
     0
176
     1
290
     0
176
     1
290
     0
176
     1
290
     0
176
     1
290
     0
176
     1
290
     0
176
     1
 90
       50
176
     1
 40
0.0
176
     1
 40
1.0
176
     1
 90
        0
176
     1
 62
    18
420
        0
176
     1
 90
       50
176
     1
 90
        3
176
     1
 62
     5
420
      255
176
     1
290
     0
176
     1
 90
       50
176
     1
 90
       50
176
     1
 90
       50
176
     1
290
     0
176
     1
 90
       50
176
     1
 62
   256
176
     0
 40
1.0
176
     0
 90
        2
176
     1
  1
strokes_ogs.tif
176
     1
290
     0
176
     1
 40
1.0
176
     1
 40
1.0
176
     1
  0
VISUALSTYLE
  5
DD2
102
{ACAD_REACTORS
330
DBC
102
}
330
DBC
100
AcDbVisualStyle
  2
JitterOff
 70
    20
177
     3
291
     1
 70
    58
 90
        2
176
     0
 90
        2
176
     0
 90
        0
176
     0
 90
        0
176
     0
 40
0.6
176
     0
 40
30.0
176
     0
 62
     7
420
 16777215
176
     0
 90
        1
176
     0
 90
        4
176
     0
 62
     7
176
     0
 62
   257
176
     0
 90
        1
176
     0
 90
        1
176
     0
 40
1.0
176
     0
 90
       10
176
     2
 62
     7
176
     0
 40
1.0
176
     0
 90
        1
176
     0
 90
        6
176
     0
 90
        2
176
     0
 62
     7
176
     0
 90
        5
176
     0
 90
        0
176
     0
 90
        0
176
     0
290
     0
176
     0
 90
        1
176
     0
 40
0.0
176
     0
 90
        0
176
     0
290
     0
176
     1
290
     1
176
     1
290
     1
176
     1
290
     0
176
     1
290
     0
176
     1
290
     0
176
     1
290
     0
176
     1
290
     0
176
     1
290
     0
176
     1
 90
       50
176
     0
 40
0.0
176
     0
 40
1.0
176
     0
 90
        0
176
     0
 62
    18
420
        0
176
     0
 90
       50
176
     0
 90
        3
176
     0
 62
     5
420
      255
176
     0
290
     0
176
     1
 90
       50
176
     0
 90
       50
176
     0
 90
       50
176
     0
290
     0
176
     1
 90
       50
176
     0
 62
   256
176
     0
 40
1.0
176
     0
 90
        2
176
     0
  1
strokes_ogs.tif
176
     0
290
     0
176
     1
 40
1.0
176
     0
 40
1.0
176
     0
  0
VISUALSTYLE
  5
DCA
102
{ACAD_REACTORS
330
DBC
102
}
330
DBC
100
AcDbVisualStyle
  2
Linepattern
 70
    14
177
     3
291
     1
 70
    58
 90
        2
176
     1
 90
        2
176
     1
 90
        0
176
     1
 90
        0
176
     1
 40
0.6
176
     1
 40
30.0
176
     1
 62
     7
420
 16777215
176
     1
 90
        1
176
     1
 90
        4
176
     1
 62
     7
176
     1
 62
   257
176
     1
 90
        7
176
     1
 90
        7
176
     1
 40
1.0
176
     1
 90
        8
176
     1
 62
     7
176
     1
 40
1.0
176
     1
 90
        1
176
     1
 90
        6
176
     1
 90
        2
176
     1
 62
     7
176
     1
 90
        5
176
     1
 90
        0
176
     1
 90
        0
176
     1
290
     0
176
     1
 90
        1
176
     1
 40
0.0
176
     1
 90
        0
176
     1
290
     0
176
     1
290
     1
176
     1
290
     1
176
     1
290
     0
176
     1
290
     0
176
     1
290
     0
176
     1
290
     0
176
     1
290
     0
176
     1
290
     0
176
     1
 90
       50
176
     1
 40
0.0
176
     1
 40
1.0
176
     1
 90
        0
176
     1
 62
    18
420
        0
176
     1
 90
       50
176
     1
 90
        3
176
     1
 62
     5
420
      255
176
     1
290
     0
176
     1
 90
       50
176
     1
 90
       50
176
     1
 90
       50
176
     1
290
     0
176
     1
 90
       50
176
     1
 62
   256
176
     0
 40
1.0
176
     0
 90
        2
176
     1
  1
strokes_ogs.tif
176
     1
290
     0
176
     1
 40
1.0
176
     1
 40
1.0
176
     1
  0
VISUALSTYLE
  5
DD3
102
{ACAD_REACTORS
330
DBC
102
}
330
DBC
100
AcDbVisualStyle
  2
OverhangOff
 70
    21
177
     3
291
     1
 70
    58
 90
        2
176
     0
 90
        2
176
     0
 90
        0
176
     0
 90
        0
176
     0
 40
0.6
176
     0
 40
30.0
176
     0
 62
     7
420
 16777215
176
     0
 90
        1
176
     0
 90
        4
176
     0
 62
     7
176
     0
 62
   257
176
     0
 90
        1
176
     0
 90
        1
176
     0
 40
1.0
176
     0
 90
        9
176
     2
 62
     7
176
     0
 40
1.0
176
     0
 90
        1
176
     0
 90
        6
176
     0
 90
        2
176
     0
 62
     7
176
     0
 90
        5
176
     0
 90
        0
176
     0
 90
        0
176
     0
290
     0
176
     0
 90
        1
176
     0
 40
0.0
176
     0
 90
        0
176
     0
290
     0
176
     1
290
     1
176
     1
290
     1
176
     1
290
     0
176
     1
290
     0
176
     1
290
     0
176
     1
290
     0
176
     1
290
     0
176
     1
290
     0
176
     1
 90
       50
176
     0
 40
0.0
176
     0
 40
1.0
176
     0
 90
        0
176
     0
 62
    18
420
        0
176
     0
 90
       50
176
     0
 90
        3
176
     0
 62
     5
420
      255
176
     0
290
     0
176
     1
 90
       50
176
     0
 90
       50
176
     0
 90
       50
176
     0
290
     0
176
     1
 90
       50
176
     0
 62
   256
176
     0
 40
1.0
176
     0
 90
        2
176
     0
  1
strokes_ogs.tif
176
     0
290
     0
176
     1
 40
1.0
176
     0
 40
1.0
176
     0
  0
VISUALSTYLE
  5
DC6
102
{ACAD_REACTORS
330
DBC
102
}
330
DBC
100
AcDbVisualStyle
  2
Realistic
 70
     8
177
     3
291
     0
 70
    58
 90
        2
176
     1
 90
        3
176
     1
 90
        0
176
     1
 90
        2
176
     1
 40
0.6
176
     1
 40
30.0
176
     1
 62
     7
420
 16777215
176
     1
 90
        0
176
     1
 90
        0
176
     1
 62
     7
176
     1
 62
   257
176
     1
 90
        1
176
     1
 90
        1
176
     1
 40
1.0
176
     1
 90
        8
176
     1
 62
   257
176
     1
 40
1.0
176
     1
 90
        1
176
     1
 90
        6
176
     1
 90
        2
176
     1
 62
     7
176
     1
 90
        3
176
     1
 90
        0
176
     1
 90
        0
176
     1
290
     0
176
     1
 90
       13
176
     1
 40
0.0
176
     1
 90
        0
176
     1
290
     0
176
     1
290
     1
176
     1
290
     1
176
     1
290
     0
176
     1
290
     0
176
     1
290
     0
176
     1
290
     0
176
     1
290
     0
176
     1
290
     0
176
     1
 90
       50
176
     1
 40
0.0
176
     1
 40
1.0
176
     1
 90
        0
176
     1
 62
    18
420
        0
176
     1
 90
       50
176
     1
 90
        3
176
     1
 62
     5
420
      255
176
     1
290
     0
176
     1
 90
       50
176
     1
 90
       50
176
     1
 90
       50
176
     1
290
     0
176
     1
 90
       50
176
     1
 62
   256
176
     0
 40
1.0
176
     0
 90
        2
176
     1
  1
strokes_ogs.tif
176
     1
290
     0
176
     1
 40
1.0
176
     1
 40
1.0
176
     1
  0
VISUALSTYLE
  5
DD1
102
{ACAD_REACTORS
330
DBC
102
}
330
DBC
100
AcDbVisualStyle
  2
Shaded
 70
    27
177
     3
291
     0
 70
    58
 90
        2
176
     1
 90
        2
176
     1
 90
        1
176
     1
 90
        2
176
     1
 40
0.6
176
     1
 40
30.0
176
     1
 62
     7
420
 16777215
176
     1
 90
        0
176
     1
 90
        4
176
     1
 62
     7
176
     1
 62
   257
176
     1
 90
        1
176
     1
 90
        1
176
     1
 40
1.0
176
     1
 90
        8
176
     1
 62
   257
176
     1
 40
1.0
176
     1
 90
        1
176
     1
 90
        6
176
     1
 90
        2
176
     1
 62
     8
420
  7895160
176
     1
 90
        3
176
     1
 90
        0
176
     1
 90
        0
176
     1
290
     0
176
     1
 90
        5
176
     1
 40
0.0
176
     1
 90
        0
176
     1
290
     0
176
     1
290
     1
176
     1
290
     1
176
     1
290
     0
176
     1
290
     0
176
     1
290
     0
176
     1
290
     0
176
     1
290
     0
176
     1
290
     0
176
     1
 90
       50
176
     1
 40
0.0
176
     1
 40
1.0
176
     1
 90
        0
176
     1
 62
    18
420
        0
176
     1
 90
       50
176
     1
 90
        3
176
     1
 62
     5
420
      255
176
     1
290
     0
176
     1
 90
       50
176
     1
 90
       50
176
     1
 90
       50
176
     1
290
     0
176
     1
 90
       50
176
     1
 62
   256
176
     0
 40
1.0
176
     0
 90
        2
176
     1
  1
strokes_ogs.tif
176
     1
290
     0
176
     1
 40
1.0
176
     1
 40
1.0
176
     1
  0
VISUALSTYLE
  5
DD0
102
{ACAD_REACTORS
330
DBC
102
}
330
DBC
100
AcDbVisualStyle
  2
Shaded with edges
 70
    26
177
     3
291
     0
 70
    58
 90
        2
176
     1
 90
        2
176
     1
 90
        1
176
     1
 90
        2
176
     1
 40
0.6
176
     1
 40
30.0
176
     1
 62
     7
420
 16777215
176
     1
 90
        1
176
     1
 90
        2
176
     1
 62
     7
176
     1
 62
   257
176
     1
 90
        2
176
     1
 90
        1
176
     1
 40
1.0
176
     1
 90
        8
176
     1
 62
   257
176
     1
 40
1.0
176
     1
 90
        1
176
     1
 90
        6
176
     1
 90
        2
176
     1
 62
     7
176
     1
 90
        3
176
     1
 90
        0
176
     1
 90
        0
176
     1
290
     0
176
     1
 90
        5
176
     1
 40
0.0
176
     1
 90
        0
176
     1
290
     0
176
     1
290
     1
176
     1
290
     1
176
     1
290
     0
176
     1
290
     0
176
     1
290
     0
176
     1
290
     0
176
     1
290
     0
176
     1
290
     0
176
     1
 90
       50
176
     1
 40
0.0
176
     1
 40
1.0
176
     1
 90
        0
176
     1
 62
    18
420
        0
176
     1
 90
       50
176
     1
 90
        3
176
     1
 62
     5
420
      255
176
     1
290
     0
176
     1
 90
       50
176
     1
 90
       50
176
     1
 90
       50
176
     1
290
     0
176
     1
 90
       50
176
     1
 62
   256
176
     0
 40
1.0
176
     0
 90
        2
176
     1
  1
strokes_ogs.tif
176
     1
290
     0
176
     1
 40
1.0
176
     1
 40
1.0
176
     1
  0
VISUALSTYLE
  5
DCD
102
{ACAD_REACTORS
330
DBC
102
}
330
DBC
100
AcDbVisualStyle
  2
Shades of Gray
 70
    23
177
     3
291
     0
 70
    58
 90
        2
176
     1
 90
        2
176
     1
 90
        3
176
     1
 90
        0
176
     1
 40
0.6
176
     1
 40
30.0
176
     1
 62
     7
420
 16777215
176
     1
 90
        2
176
     1
 90
        2
176
     1
 62
     7
176
     1
 62
     7
176
     1
 90
        1
176
     1
 90
        1
176
     1
 40
40.0
176
     1
 90
        8
176
     1
 62
     7
176
     1
 40
1.0
176
     1
 90
        1
176
     1
 90
        6
176
     1
 90
        2
176
     1
 62
     7
176
     1
 90
        3
176
     1
 90
        0
176
     1
 90
        0
176
     1
290
     0
176
     1
 90
        1
176
     1
 40
0.0
176
     1
 90
        0
176
     1
290
     0
176
     1
290
     1
176
     1
290
     1
176
     1
290
     0
176
     1
290
     0
176
     1
290
     0
176
     1
290
     0
176
     1
290
     0
176
     1
290
     0
176
     1
 90
       50
176
     1
 40
0.0
176
     1
 40
1.0
176
     1
 90
        0
176
     1
 62
    18
420
        0
176
     1
 90
       50
176
     1
 90
        3
176
     1
 62
     5
420
      255
176
     1
290
     0
176
     1
 90
       50
176
     1
 90
       50
176
     1
 90
       50
176
     1
290
     0
176
     1
 90
       50
176
     1
 62
   256
176
     0
 40
1.0
176
     0
 90
        2
176
     1
  1
strokes_ogs.tif
176
     1
290
     0
176
     1
 40
1.0
176
     1
 40
1.0
176
     1
  0
VISUALSTYLE
  5
DCE
102
{ACAD_REACTORS
330
DBC
102
}
330
DBC
100
AcDbVisualStyle
  2
Sketchy
 70
    24
177
     3
291
     0
 70
    58
 90
        1
176
     1
 90
        2
176
     1
 90
        2
176
     1
 90
        0
176
     1
 40
0.6
176
     1
 40
30.0
176
     1
 62
     7
420
 16777215
176
     1
 90
        2
176
     1
 90
        2
176
     1
 62
     7
176
     1
 62
     7
176
     1
 90
        1
176
     1
 90
        1
176
     1
 40
40.0
176
     1
 90
       11
176
     1
 62
     7
176
     1
 40
1.0
176
     1
 90
        1
176
     1
 90
        6
176
     1
 90
        2
176
     1
 62
     7
176
     1
 90
        6
176
     1
 90
        0
176
     1
 90
        0
176
     1
290
     0
176
     1
 90
        1
176
     1
 40
0.0
176
     1
 90
        0
176
     1
290
     0
176
     1
290
     1
176
     1
290
     1
176
     1
290
     0
176
     1
290
     0
176
     1
290
     0
176
     1
290
     0
176
     1
290
     0
176
     1
290
     0
176
     1
 90
       50
176
     1
 40
0.0
176
     1
 40
1.0
176
     1
 90
        0
176
     1
 62
    18
420
        0
176
     1
 90
       50
176
     1
 90
        3
176
     1
 62
     5
420
      255
176
     1
290
     0
176
     1
 90
       50
176
     1
 90
       50
176
     1
 90
       50
176
     1
290
     0
176
     1
 90
       50
176
     1
 62
   256
176
     0
 40
1.0
176
     0
 90
        2
176
     1
  1
strokes_ogs.tif
176
     1
290
     0
176
     1
 40
1.0
176
     1
 40
1.0
176
     1
  0
VISUALSTYLE
  5
DC9
102
{ACAD_REACTORS
330
DBC
102
}
330
DBC
100
AcDbVisualStyle
  2
Thicken
 70
    13
177
     3
291
     1
 70
    58
 90
        2
176
     1
 90
        2
176
     1
 90
        0
176
     1
 90
        0
176
     1
 40
0.6
176
     1
 40
30.0
176
     1
 62
     7
420
 16777215
176
     1
 90
        1
176
     1
 90
        4
176
     1
 62
     7
176
     1
 62
   257
176
     1
 90
        1
176
     1
 90
        1
176
     1
 40
1.0
176
     1
 90
       12
176
     1
 62
     7
176
     1
 40
1.0
176
     1
 90
        1
176
     1
 90
        6
176
     1
 90
        2
176
     1
 62
     7
176
     1
 90
        5
176
     1
 90
        0
176
     1
 90
        0
176
     1
290
     0
176
     1
 90
        1
176
     1
 40
0.0
176
     1
 90
        0
176
     1
290
     0
176
     1
290
     1
176
     1
290
     1
176
     1
290
     0
176
     1
290
     0
176
     1
290
     0
176
     1
290
     0
176
     1
290
     0
176
     1
290
     0
176
     1
 90
       50
176
     1
 40
0.0
176
     1
 40
1.0
176
     1
 90
        0
176
     1
 62
    18
420
        0
176
     1
 90
       50
176
     1
 90
        3
176
     1
 62
     5
420
      255
176
     1
290
     0
176
     1
 90
       50
176
     1
 90
       50
176
     1
 90
       50
176
     1
290
     0
176
     1
 90
       50
176
     1
 62
   256
176
     0
 40
1.0
176
     0
 90
        2
176
     1
  1
strokes_ogs.tif
176
     1
290
     0
176
     1
 40
1.0
176
     1
 40
1.0
176
     1
  0
VISUALSTYLE
  5
DC3
102
{ACAD_REACTORS
330
DBC
102
}
330
DBC
100
AcDbVisualStyle
  2
Wireframe
 70
     5
177
     3
291
     0
 70
    58
 90
        0
176
     1
 90
        2
176
     1
 90
        0
176
     1
 90
        0
176
     1
 40
0.6
176
     1
 40
30.0
176
     1
 62
     7
420
 16777215
176
     1
 90
        1
176
     1
 90
        4
176
     1
 62
     7
176
     1
 62
   257
176
     1
 90
        1
176
     1
 90
        1
176
     1
 40
1.0
176
     1
 90
        0
176
     1
 62
   257
176
     1
 40
1.0
176
     1
 90
        1
176
     1
 90
        6
176
     1
 90
        2
176
     1
 62
     7
176
     1
 90
        3
176
     1
 90
        0
176
     1
 90
        0
176
     1
290
     0
176
     1
 90
        1
176
     1
 40
0.0
176
     1
 90
        0
176
     1
290
     0
176
     1
290
     1
176
     1
290
     1
176
     1
290
     0
176
     1
290
     0
176
     1
290
     0
176
     1
290
     0
176
     1
290
     0
176
     1
290
     0
176
     1
 90
       50
176
     1
 40
0.0
176
     1
 40
1.0
176
     1
 90
        0
176
     1
 62
    18
420
        0
176
     1
 90
       50
176
     1
 90
        3
176
     1
 62
     5
420
      255
176
     1
290
     0
176
     1
 90
       50
176
     1
 90
       50
176
     1
 90
       50
176
     1
290
     0
176
     1
 90
       50
176
     1
 62
   256
176
     0
 40
1.0
176
     0
 90
        2
176
     1
  1
strokes_ogs.tif
176
     1
290
     0
176
     1
 40
1.0
176
     1
 40
1.0
176
     1
  0
VISUALSTYLE
  5
DCF
102
{ACAD_REACTORS
330
DBC
102
}
330
DBC
100
AcDbVisualStyle
  2
X-Ray
 70
    25
177
     3
291
     0
 70
    58
 90
        2
176
     1
 90
        2
176
     1
 90
        1
176
     1
 90
        1
176
     1
 40
0.5
176
     1
 40
30.0
176
     1
 62
     7
420
 16777215
176
     1
 90
        1
176
     1
 90
        0
176
     1
 62
     7
176
     1
 62
   257
176
     1
 90
        1
176
     1
 90
        1
176
     1
 40
1.0
176
     1
 90
        8
176
     1
 62
     7
176
     1
 40
1.0
176
     1
 90
        1
176
     1
 90
        6
176
     1
 90
        2
176
     1
 62
     7
176
     1
 90
        3
176
     1
 90
        0
176
     1
 90
        0
176
     1
290
     0
176
     1
 90
       13
176
     1
 40
0.0
176
     1
 90
        0
176
     1
290
     0
176
     1
290
     1
176
     1
290
     1
176
     1
290
     0
176
     1
290
     0
176
     1
290
     0
176
     1
290
     0
176
     1
290
     0
176
     1
290
     0
176
     1
 90
       50
176
     1
 40
0.0
176
     1
 40
1.0
176
     1
 90
        0
176
     1
 62
    18
420
        0
176
     1
 90
       50
176
     1
 90
        3
176
     1
 62
     5
420
      255
176
     1
290
     0
176
     1
 90
       50
176
     1
 90
       50
176
     1
 90
       50
176
     1
290
     0
176
     1
 90
       50
176
     1
 62
   256
176
     0
 40
1.0
176
     0
 90
        2
176
     1
  1
strokes_ogs.tif
176
     1
290
     0
176
     1
 40
1.0
176
     1
 40
1.0
176
     1
  0
DICTIONARYVAR
  5
1C97
102
{ACAD_REACTORS
330
A80
102
}
330
A80
100
DictionaryVariables
280
     0
  1
0
  0
DICTIONARYVAR
  5
1C98
102
{ACAD_REACTORS
330
A80
102
}
330
A80
100
DictionaryVariables
280
     0
  1
1:1
  0
DICTIONARYVAR
  5
1C93
102
{ACAD_REACTORS
330
A80
102
}
330
A80
100
DictionaryVariables
280
     0
  1
STANDARD
  0
DICTIONARYVAR
  5
1C92
102
{ACAD_REACTORS
330
A80
102
}
330
A80
100
DictionaryVariables
280
     0
  1
STANDARD
  0
DICTIONARYVAR
  5
1C94
102
{ACAD_REACTORS
330
A80
102
}
330
A80
100
DictionaryVariables
280
     0
  1
Imperial24
  0
DICTIONARYVAR
  5
1C95
102
{ACAD_REACTORS
330
A80
102
}
330
A80
100
DictionaryVariables
280
     0
  1
Imperial24
  0
DICTIONARYVAR
  5
A86
102
{ACAD_REACTORS
330
A80
102
}
330
A80
100
DictionaryVariables
280
     0
  1
1
  0
DICTIONARYVAR
  5
A85
102
{ACAD_REACTORS
330
A80
102
}
330
A80
100
DictionaryVariables
280
     0
  1
0
  0
DICTIONARYVAR
  5
1C9A
102
{ACAD_REACTORS
330
A80
102
}
330
A80
100
DictionaryVariables
280
     0
  1
1
  0
DICTIONARYVAR
  5
1C9B
102
{ACAD_REACTORS
330
A80
102
}
330
A80
100
DictionaryVariables
280
     0
  1
15
  0
DICTIONARYVAR
  5
1C99
102
{ACAD_REACTORS
330
A80
102
}
330
A80
100
DictionaryVariables
280
     0
  1
0
  0
DICTIONARYVAR
  5
1C96
102
{ACAD_REACTORS
330
A80
102
}
330
A80
100
DictionaryVariables
280
     0
  1
0
  0
DICTIONARYVAR
  5
B2D
102
{ACAD_REACTORS
330
A80
102
}
330
A80
100
DictionaryVariables
280
     0
  1

  0
DICTIONARYVAR
  5
A84
102
{ACAD_REACTORS
330
A80
102
}
330
A80
100
DictionaryVariables
280
     0
  1
127
  0
ACDBASSOCNETWORK
  5
194D
102
{ACAD_REACTORS
330
194C
102
}
330
194C
100
AcDbAssocAction
 90
        2
 90
        0
330
194F
360
0
 90
        1
 90
        0
 90
        0
 90
        0
 90
        0
 90
        0
 90
        0
100
AcDbAssocNetwork
 90
        0
 90
        2
 90
        2
360
1950
360
1960
 90
        0
  0
DICTIONARY
  5
DAD
330
DAC
100
AcDbDictionary
280
     1
281
     1
  3
BUMPTILE
360
DAF
  3
DIFFUSETILE
360
DAE
  3
OPACITYTILE
360
DB2
  3
REFLECTIONTILE
360
DB1
  3
REFRACTIONTILE
360
DB3
  3
SPECULARTILE
360
DB0
  0
DICTIONARY
  5
DA5
330
DA4
100
AcDbDictionary
280
     1
281
     1
  3
BUMPTILE
360
DA7
  3
DIFFUSETILE
360
DA6
  3
OPACITYTILE
360
DAA
  3
REFLECTIONTILE
360
DA9
  3
REFRACTIONTILE
360
DAB
  3
SPECULARTILE
360
DA8
  0
DICTIONARY
  5
DB5
330
DB4
100
AcDbDictionary
280
     1
281
     1
  3
BUMPTILE
360
DB7
  3
DIFFUSETILE
360
DB6
  3
OPACITYTILE
360
DBA
  3
REFLECTIONTILE
360
DB9
  3
REFRACTIONTILE
360
DBB
  3
SPECULARTILE
360
DB8
  0
DICTIONARY
  5
1C9C
330
DD7
100
AcDbDictionary
280
     1
281
     1
  3
ACAD_ROUNDTRIP_2008_TABLESTYLE_CELLSTYLEMAP
360
1C9D
  0
ACDBASSOCACTION
  5
1950
330
194D
100
AcDbAssocAction
 90
        2
 90
        0
330
194D
360
1951
 90
        1
 90
        2
 90
        2
360
1953
360
1959
 90
        0
 90
        1
360
1952
 90
        0
 90
       16
 90
        0
  1
HorizontalStartExtension
 90
        0
 90
        1
 40
1.000000000000000E+60
330
0
330
0
 90
        0
  1
HorizontalEndExtension
 90
        0
 90
        1
 40
1.000000000000000E+60
330
0
330
0
 90
        0
  1
VerticalStartExtension
 90
        0
 90
        1
 40
1.000000000000000E+60
330
0
330
0
 90
        0
  1
VerticalEndExtension
 90
        0
 90
        1
 40
68.0
330
0
330
0
 90
        0
  1
HorizontalStartOvershoot
 90
        0
 90
        1
 40
2.12
330
0
330
0
 90
        0
  1
HorizontalEndOvershoot
 90
        0
 90
        1
 40
2.120000000000115
330
0
330
0
 90
        0
  1
VerticalStartOvershoot
 90
        0
 90
        1
 40
2.12
330
0
330
0
 90
        0
  1
VerticalEndOvershoot
 90
        0
 90
        1
 40
2.12
330
0
330
0
 90
        0
  1
CrossHairLengthExpression
 90
        0
 90
        1
  1
0.1x
330
0
330
0
 90
        0
  1
CrossHairGapExpression
 90
        0
 90
        1
  1
0.05x
330
0
330
0
 90
        0
  1
CenterDepId
 90
        0
 90
        1
330
1959
330
0
330
0
 90
        0
  1
CachedCircleRadius
 90
        0
 90
        1
 40
42.9910019655276
330
0
330
0
 90
        0
  1
SubentLineType
 90
        0
 90
        1
  1
CENTER2
330
0
330
0
 90
        0
  1
SubentLineWeight
 90
        0
 90
        1
 40
-1.0
330
0
330
0
 90
        0
  1
SubentLinetypeScale
 90
        0
 90
        1
 40
1.0
330
0
330
0
 90
        0
  1
CachedAssociateStatus
 90
        0
 90
        1
 40
1.0
330
0
330
0
  0
ACDBASSOCACTION
  5
1960
330
194D
100
AcDbAssocAction
 90
        2
 90
        0
330
194D
360
1961
 90
        2
 90
        3
 90
        3
360
1963
360
1965
360
196A
 90
        0
 90
        2
360
1962
360
1964
 90
        0
 90
       14
 90
        0
  1
StartExtLength
 90
        0
 90
        1
 40
236.7000005
330
0
330
0
 90
        0
  1
EndExtLength
 90
        0
 90
        1
 40
145.3000014999997
330
0
330
0
 90
        0
  1
StartOvershoot
 90
        0
 90
        1
 40
2.120000000000073
330
0
330
0
 90
        0
  1
EndOvershoot
 90
        0
 90
        1
 40
2.119999999999884
330
0
330
0
 90
        0
  1
EdgeRefDirectionEnding
 90
        0
 90
        2
 90
        1
330
0
 90
        1
330
0
330
0
 90
        0
  1
CenterDepId
 90
        0
 90
        1
330
196A
330
0
330
0
 90
        0
  1
CachedCenterLineLength
 90
        0
 90
        1
 40
282.0000020000002
330
0
330
0
 90
        0
  1
CachedCenterLineDirectionX
 90
        0
 90
        1
 40
1.0
330
0
330
0
 90
        0
  1
CachedCenterLineDirectionY
 90
        0
 90
        1
 40
0.0
330
0
330
0
 90
        0
  1
CachedCenterLineDirectionZ
 90
        0
 90
        1
 40
0.0
330
0
330
0
 90
        0
  1
SubentLineType
 90
        0
 90
        1
  1
CENTER2
330
0
330
0
 90
        0
  1
SubentLineWeight
 90
        0
 90
        1
 40
-1.0
330
0
330
0
 90
        0
  1
SubentLinetypeScale
 90
        0
 90
        1
 40
1.0
330
0
330
0
 90
        0
  1
CachedAssociateStatus
 90
        0
 90
        1
 40
1.0
330
0
330
0
  0
XRECORD
  5
DAF
102
{ACAD_REACTORS
330
DAD
102
}
330
DAD
100
AcDbXrecord
280
     1
270
     1
271
     1
  0
XRECORD
  5
DAE
102
{ACAD_REACTORS
330
DAD
102
}
330
DAD
100
AcDbXrecord
280
     1
270
     1
271
     1
  0
XRECORD
  5
DB2
102
{ACAD_REACTORS
330
DAD
102
}
330
DAD
100
AcDbXrecord
280
     1
270
     1
271
     1
  0
XRECORD
  5
DB1
102
{ACAD_REACTORS
330
DAD
102
}
330
DAD
100
AcDbXrecord
280
     1
270
     1
271
     1
  0
XRECORD
  5
DB3
102
{ACAD_REACTORS
330
DAD
102
}
330
DAD
100
AcDbXrecord
280
     1
270
     1
271
     1
  0
XRECORD
  5
DB0
102
{ACAD_REACTORS
330
DAD
102
}
330
DAD
100
AcDbXrecord
280
     1
270
     1
271
     1
  0
XRECORD
  5
DA7
102
{ACAD_REACTORS
330
DA5
102
}
330
DA5
100
AcDbXrecord
280
     1
270
     1
271
     1
  0
XRECORD
  5
DA6
102
{ACAD_REACTORS
330
DA5
102
}
330
DA5
100
AcDbXrecord
280
     1
270
     1
271
     1
  0
XRECORD
  5
DAA
102
{ACAD_REACTORS
330
DA5
102
}
330
DA5
100
AcDbXrecord
280
     1
270
     1
271
     1
  0
XRECORD
  5
DA9
102
{ACAD_REACTORS
330
DA5
102
}
330
DA5
100
AcDbXrecord
280
     1
270
     1
271
     1
  0
XRECORD
  5
DAB
102
{ACAD_REACTORS
330
DA5
102
}
330
DA5
100
AcDbXrecord
280
     1
270
     1
271
     1
  0
XRECORD
  5
DA8
102
{ACAD_REACTORS
330
DA5
102
}
330
DA5
100
AcDbXrecord
280
     1
270
     1
271
     1
  0
XRECORD
  5
DB7
102
{ACAD_REACTORS
330
DB5
102
}
330
DB5
100
AcDbXrecord
280
     1
270
     1
271
     1
  0
XRECORD
  5
DB6
102
{ACAD_REACTORS
330
DB5
102
}
330
DB5
100
AcDbXrecord
280
     1
270
     1
271
     1
  0
XRECORD
  5
DBA
102
{ACAD_REACTORS
330
DB5
102
}
330
DB5
100
AcDbXrecord
280
     1
270
     1
271
     1
  0
XRECORD
  5
DB9
102
{ACAD_REACTORS
330
DB5
102
}
330
DB5
100
AcDbXrecord
280
     1
270
     1
271
     1
  0
XRECORD
  5
DBB
102
{ACAD_REACTORS
330
DB5
102
}
330
DB5
100
AcDbXrecord
280
     1
270
     1
271
     1
  0
XRECORD
  5
DB8
102
{ACAD_REACTORS
330
DB5
102
}
330
DB5
100
AcDbXrecord
280
     1
270
     1
271
     1
  0
CELLSTYLEMAP
  5
1C9D
102
{ACAD_REACTORS
330
1C9C
102
}
330
1C9C
100
AcDbCellStyleMap
 90
        3
300
CELLSTYLE
  1
TABLEFORMAT_BEGIN
 90
        5
170
     1
 91
        0
 92
    32768
 62
   257
 93
        1
300
CONTENTFORMAT
  1
CONTENTFORMAT_BEGIN
 90
        0
 91
        0
 92
      512
 93
        0
300

 40
0.0
140
1.0
 94
        5
 62
     0
340
11
144
0.25
309
CONTENTFORMAT_END
171
     0
 94
        0
309
TABLEFORMAT_END
  1
CELLSTYLE_BEGIN
 90
        1
 91
        1
300
_TITLE
309
CELLSTYLE_END
300
CELLSTYLE
  1
TABLEFORMAT_BEGIN
 90
        5
170
     1
 91
        0
 92
        0
 62
   257
 93
        1
300
CONTENTFORMAT
  1
CONTENTFORMAT_BEGIN
 90
        0
 91
        0
 92
      512
 93
        0
300

 40
0.0
140
1.0
 94
        5
 62
     0
340
11
144
0.18
309
CONTENTFORMAT_END
171
     0
 94
        0
309
TABLEFORMAT_END
  1
CELLSTYLE_BEGIN
 90
        2
 91
        1
300
_HEADER
309
CELLSTYLE_END
300
CELLSTYLE
  1
TABLEFORMAT_BEGIN
 90
        5
170
     1
 91
        0
 92
        0
 62
   257
 93
        1
300
CONTENTFORMAT
  1
CONTENTFORMAT_BEGIN
 90
        0
 91
        0
 92
      512
 93
        0
300

 40
0.0
140
1.0
 94
        2
 62
     0
340
11
144
0.18
309
CONTENTFORMAT_END
171
     0
 94
        0
309
TABLEFORMAT_END
  1
CELLSTYLE_BEGIN
 90
        3
 91
        2
300
_DATA
309
CELLSTYLE_END
  0
AcDbCenterMarkActionBody
  5
1951
330
1950
100
AcDbAssocActionBody
 90
        2
100
AcDbSmartCenterActionBody
 90
        0
  0
ACDBASSOCGEOMDEPENDENCY
  5
1953
330
1950
100
AcDbAssocDependency
 90
        2
 90
        0
290
     1
290
     0
290
     1
290
     1
 90
        0
330
9EF
290
     0
330
0
330
0
360
0
 90
        1
100
AcDbAssocGeomDependency
 90
        0
290
     1
  1
AcDbAssocSingleEdgePersSubentId
290
     0
  0
ACDBASSOCDEPENDENCY
  5
1959
330
1950
100
AcDbAssocDependency
 90
        2
 90
        0
290
     1
290
     1
290
     1
290
     1
 90
        0
330
1957
290
     0
330
0
330
0
360
0
 90
        2
  0
ACDBASSOCEDGEACTIONPARAM
  5
1952
330
1950
100
AcDbAssocActionParam
 90
        1
 90
        0
  1
InputEdge
100
AcDbAssocSingleDependencyActionParam
 90
        0
330
1953
100
AcDbAssocEdgeActionParam
 90
        0
330
0
290
     1
 90
       11
 10
2705.599615397356
 20
209.9772777020586
 30
0.0
 10
0.0
 20
0.0
 30
1.0
 10
1.0
 20
0.0
 30
0.0
 40
42.9910019655276
 40
0.0
 40
6.283185307179586
 40
0.0
  0
AcDbCenterLineActionBody
  5
1961
330
1960
100
AcDbAssocActionBody
 90
        2
100
AcDbSmartCenterActionBody
 90
        0
  0
ACDBASSOCGEOMDEPENDENCY
  5
1963
330
1960
100
AcDbAssocDependency
 90
        2
 90
        0
290
     1
290
     0
290
     1
290
     1
 90
        0
330
5CF
290
     0
330
0
330
0
360
0
 90
        1
100
AcDbAssocGeomDependency
 90
        0
290
     1
  1
AcDbAssocSingleEdgePersSubentId
290
     0
  0
ACDBASSOCGEOMDEPENDENCY
  5
1965
330
1960
100
AcDbAssocDependency
 90
        2
 90
        0
290
     1
290
     0
290
     1
290
     1
 90
        0
330
469
290
     0
330
0
330
0
360
0
 90
        2
100
AcDbAssocGeomDependency
 90
        0
290
     1
  1
AcDbAssocSingleEdgePersSubentId
290
     0
  0
ACDBASSOCDEPENDENCY
  5
196A
330
1960
100
AcDbAssocDependency
 90
        2
 90
        0
290
     1
290
     1
290
     1
290
     1
 90
        0
330
1969
290
     0
330
0
330
0
360
0
 90
        3
  0
ACDBASSOCEDGEACTIONPARAM
  5
1962
330
1960
100
AcDbAssocActionParam
 90
        1
 90
        0
  1
InputEdge
100
AcDbAssocSingleDependencyActionParam
 90
        0
330
1963
100
AcDbAssocEdgeActionParam
 90
        0
330
0
290
     1
 90
       23
 10
2978.167665397356
 20
252.9772777020586
 30
0.0
 10
174.9999999999991
 20
0.0
 30
0.0
  0
ACDBASSOCEDGEACTIONPARAM
  5
1964
330
1960
100
AcDbAssocActionParam
 90
        1
 90
        0
  1
InputEdge
100
AcDbAssocSingleDependencyActionParam
 90
        0
330
1965
100
AcDbAssocEdgeActionParam
 90
        0
330
0
290
     1
 90
       23
 10
2929.267665397356
 20
166.9772777020585
 30
0.0
 10
282.0000020000002
 20
0.0
 30
0.0
  0
ENDSEC
  0
EOF
